<?xml version="1.0" standalone="no"?>
<!DOCTYPE svg PUBLIC "-//W3C//DTD SVG 1.1//EN" "http://www.w3.org/Graphics/SVG/1.1/DTD/svg11.dtd" >
<svg>
<metadata>
Created by FontForge 20120731 at Sat Aug 24 10:28:17 2019
 By www-data
(c) Linotype-Hell AG
</metadata>
<defs>
<font id="Avenir-Heavy" horiz-adv-x="532" >
  <font-face 
    font-family="Avenir 85 Heavy"
    font-weight="700"
    font-stretch="normal"
    units-per-em="2048"
    panose-1="2 11 6 3 2 2 3 2 2 4"
    ascent="1638"
    descent="-410"
    x-height="985"
    cap-height="1455"
    bbox="-334 -507 2299 1928"
    underline-thickness="102"
    underline-position="-154"
    unicode-range="U+0020-FB02"
  />
<missing-glyph horiz-adv-x="1517" 
d="M247 0v1280h1024v-1280h-1024zM279 32h960v1216h-960v-1216z" />
    <glyph glyph-name=".notdef" horiz-adv-x="1517" 
d="M247 0v1280h1024v-1280h-1024zM279 32h960v1216h-960v-1216z" />
    <glyph glyph-name=".null" horiz-adv-x="0" 
 />
    <glyph glyph-name="nonmarkingreturn" horiz-adv-x="0" 
 />
    <glyph glyph-name="space" unicode=" " horiz-adv-x="606" 
 />
    <glyph glyph-name="exclam" unicode="!" horiz-adv-x="606" 
d="M427 1455v-1006h-247v1006h247zM304 314q68 0 115.5 -48t47.5 -116q0 -67 -48 -115t-115 -48q-68 0 -116 47.5t-48 115.5t47.5 116t116.5 48z" />
    <glyph glyph-name="quotedbl" unicode="&#x22;" horiz-adv-x="1063" 
d="M420 859h-134l-36 596h206zM776 859h-134l-36 596h206z" />
    <glyph glyph-name="numbersign" unicode="#" horiz-adv-x="1212" 
d="M365 0h-198l76 406h-187v168h218l56 304h-187v168h218l76 409h198l-76 -409h230l76 409h197l-75 -409h186v-168h-218l-56 -304h187v-168h-218l-75 -406h-198l75 406h-230zM701 574l57 304h-230l-56 -304h229z" />
    <glyph glyph-name="dollar" unicode="$" horiz-adv-x="1212" 
d="M662 1629v-141q252 0 421 -145l-171 -194q-61 59 -107 79q-67 29 -143 32v-414q186 -52 255 -89q104 -54 157 -136t53 -204q0 -181 -124.5 -306.5t-347.5 -144.5v-147h-116v146q-162 1 -274 45.5t-204 136.5l186 196q99 -135 292 -150v434q-174 48 -259.5 98t-134 134.5
t-48.5 192.5q0 166 118.5 288t330.5 146v143h116zM546 1256q-94 -16 -141.5 -67.5t-47.5 -123.5q0 -65 41 -111.5t148 -76.5v379zM655 198q105 15 158 70.5t53 130.5q0 65 -43 112t-168 84v-397z" />
    <glyph glyph-name="percent" unicode="%" horiz-adv-x="1857" 
d="M1441 1443l-881 -1512l-141 82l881 1512zM469 1491q93 0 181.5 -48t138 -137t49.5 -185t-48.5 -184t-136.5 -137t-184 -49t-184 49t-137 137t-49 184t49.5 185t138.5 137t182 48zM469 1302q-76 0 -128.5 -53t-52.5 -128t53 -128t128 -53t128 53t53 128t-53 128t-128 53z
M1387 696q93 0 181.5 -48t138 -137t49.5 -185t-48.5 -184t-136.5 -137t-184 -49t-184 49t-137 137t-49 184t49.5 185t138.5 137t182 48zM1387 507q-76 0 -128.5 -53t-52.5 -128t53 -128t128 -53t128 53t53 128t-53 128t-128 53z" />
    <glyph glyph-name="ampersand" unicode="&#x26;" horiz-adv-x="1517" 
d="M1467 762l-293 -422l327 -340h-329l-153 167q-97 -110 -198.5 -156.5t-236.5 -46.5q-101 0 -174.5 21.5t-128 59t-95.5 88.5t-66 120.5t-25 138.5q0 123 79 231t237 173q-67 76 -95 116.5t-48 97t-20 120.5q0 96 47 179t144.5 130t227.5 47q190 0 294.5 -96t104.5 -246
q0 -117 -76.5 -213.5t-210.5 -165.5l236 -252l163 249h289zM629 908q116 62 158 115.5t42 110.5q0 62 -44 104t-118 42q-75 0 -122.5 -45.5t-47.5 -114.5q0 -41 21 -78q27 -50 111 -134zM567 651q-122 -73 -161.5 -127t-39.5 -123q0 -88 66.5 -152t164.5 -64q61 0 125 30.5
t146 115.5z" />
    <glyph glyph-name="quotesingle" unicode="'" horiz-adv-x="606" 
d="M367 859h-128l-39 596h206z" />
    <glyph glyph-name="parenleft" unicode="(" horiz-adv-x="606" 
d="M399 1540l173 -106q-78 -119 -117 -192q-52 -99 -84 -197q-32 -99 -50 -215t-18 -219q0 -203 64 -413q64 -211 202 -404l-172 -117q-160 225 -230 465q-70 241 -70 453q0 172 36 347q36 176 111 336q51 110 155 262z" />
    <glyph glyph-name="parenright" unicode=")" horiz-adv-x="606" 
d="M34 1434l173 106q105 -153 156 -263q74 -160 110 -335q36 -176 36 -347q0 -212 -70 -452q-70 -241 -230 -466l-173 117q139 193 203 403q64 211 64 414q0 115 -20.5 237.5t-54 216.5t-75.5 173.5t-119 195.5z" />
    <glyph glyph-name="asterisk" unicode="*" horiz-adv-x="948" 
d="M569 1455v-287l276 92l52 -165l-277 -89l175 -240l-141 -103l-179 242l-174 -235l-139 104l178 232l-281 96l53 163l279 -97v287h178z" />
    <glyph glyph-name="plus" unicode="+" horiz-adv-x="1364" 
d="M578 0v430h-425v195h425v430h209v-430h425v-195h-425v-430h-209z" />
    <glyph glyph-name="comma" unicode="," horiz-adv-x="606" 
d="M495 279l-177 -537h-219l147 537h249z" />
    <glyph glyph-name="hyphen" unicode="-" horiz-adv-x="645" 
d="M573 604v-210h-503v210h503z" />
    <glyph glyph-name="hyphen" unicode="&#xad;" horiz-adv-x="645" 
d="M573 604v-210h-503v210h503z" />
    <glyph glyph-name="period" unicode="." horiz-adv-x="606" 
d="M304 314q68 0 115.5 -48t47.5 -116q0 -67 -48 -115t-115 -48q-68 0 -116 47.5t-48 115.5t47.5 116t116.5 48z" />
    <glyph glyph-name="slash" unicode="/" horiz-adv-x="797" 
d="M791 1487l-616 -1583l-170 66l616 1583z" />
    <glyph glyph-name="zero" unicode="0" horiz-adv-x="1212" 
d="M88 715q0 178 24 294q34 169 105 272.5t173 154.5t226 51q261 0 387.5 -211.5t126.5 -553.5q0 -392 -164 -594q-130 -160 -354 -160q-138 0 -236 54t-159 144t-95 227.5t-34 321.5zM340 730q0 -131 11 -211q17 -110 51.5 -180t87 -105.5t117.5 -35.5q111 0 181 97
q90 127 90 429q0 310 -88 434q-71 99 -180 99q-111 0 -178 -95q-92 -130 -92 -432z" />
    <glyph glyph-name="one" unicode="1" horiz-adv-x="1212" 
d="M836 1455v-1455h-253v991q0 110 9 180q-43 -46 -83 -81l-199 -172l-144 170l438 367h232z" />
    <glyph glyph-name="two" unicode="2" horiz-adv-x="1212" 
d="M1100 227v-227h-980v266l556 538q95 92 126.5 149t31.5 113q0 83 -58.5 139t-151.5 56q-88 0 -146.5 -51t-76.5 -153l-261 21q23 195 149 303.5t343 108.5q220 0 343 -116t123 -299q0 -88 -28 -161t-73 -131q-46 -59 -140 -152l-310 -301q-63 -62 -126 -109q80 6 165 6
h514z" />
    <glyph glyph-name="three" unicode="3" horiz-adv-x="1212" 
d="M450 645v219q31 -1 46 -1q134 0 188 20t86.5 69t32.5 110q0 87 -57 142.5t-153 55.5q-80 0 -136.5 -39t-84.5 -112l-261 68q48 147 167 228t308 81q257 0 380 -148q86 -105 86 -246q0 -84 -33.5 -156t-96.5 -119q-48 -35 -127 -58q82 -12 137 -47q73 -46 114.5 -126
t41.5 -180q0 -190 -132 -313t-370 -123q-155 0 -258.5 50t-167.5 137q-40 55 -71 159l263 69q26 -88 63 -126q63 -63 169 -63q110 0 178 65.5t68 163.5q0 66 -36 120.5t-100 77.5t-188 23q-18 0 -56 -1z" />
    <glyph glyph-name="four" unicode="4" horiz-adv-x="1212" 
d="M939 1455v-926h201v-218h-201v-311h-250v311h-614v240l580 904h284zM698 521v389q0 131 4 240q-35 -76 -102 -182l-198 -316q-32 -50 -92 -131h388z" />
    <glyph glyph-name="five" unicode="5" horiz-adv-x="1212" 
d="M210 1455h825v-226h-582l-6 -295q62 17 155 17q214 0 346.5 -132t132.5 -345q0 -220 -143.5 -361t-380.5 -141q-133 0 -228.5 46t-160.5 131q-44 59 -76 157l259 71q25 -83 85.5 -129.5t142.5 -46.5q107 0 179 72t72 183q0 123 -85 200t-252 77q-72 0 -153 -17.5
t-146 -46.5z" />
    <glyph glyph-name="six" unicode="6" horiz-adv-x="1212" 
d="M896 1455l-361 -559q79 22 143 22q191 0 319 -130.5t128 -328.5q0 -212 -142.5 -351.5t-377.5 -139.5q-263 0 -399 164q-115 140 -115 331q0 100 30.5 193.5t114.5 228.5l356 570h304zM873 472q0 108 -74.5 181t-188.5 73q-115 0 -190 -74.5t-75 -189.5q0 -116 74 -190
t189 -74q117 0 191 76t74 198z" />
    <glyph glyph-name="seven" unicode="7" horiz-adv-x="1212" 
d="M1076 1455v-225l-579 -1230h-290l594 1221h-710v234h985z" />
    <glyph glyph-name="eight" unicode="8" horiz-adv-x="1212" 
d="M814 762q116 -33 185 -106q96 -103 96 -258q0 -161 -103 -278q-135 -154 -388 -154q-224 0 -356.5 124t-132.5 302q0 143 76.5 241.5t206.5 126.5q-108 23 -177.5 111.5t-69.5 210.5q0 175 121.5 290.5t335.5 115.5q244 0 366 -150q85 -104 85 -247q0 -94 -35.5 -163.5
t-99.5 -115.5q-42 -30 -110 -50zM400 1067q0 -87 58 -145.5t146 -58.5t146.5 58t58.5 144t-56.5 142.5t-144.5 56.5q-61 0 -110 -28t-73.5 -74.5t-24.5 -94.5zM367 429q0 -100 67.5 -167.5t170.5 -67.5q105 0 172.5 67t67.5 166q0 98 -67.5 164.5t-170.5 66.5
q-69 0 -126 -31.5t-85.5 -87t-28.5 -110.5z" />
    <glyph glyph-name="nine" unicode="9" horiz-adv-x="1212" 
d="M320 0l359 558q-72 -20 -139 -20q-193 0 -321 129t-128 327q0 216 143.5 356t385.5 140q164 0 279 -71t170.5 -186.5t55.5 -241.5q0 -91 -31.5 -190t-113.5 -230l-357 -571h-303zM342 988q0 -113 74 -186t191 -73q116 0 190 75t74 191q0 114 -75 189t-188 75
q-114 0 -190 -77t-76 -194z" />
    <glyph glyph-name="colon" unicode=":" horiz-adv-x="606" 
d="M304 998q68 0 115.5 -47.5t47.5 -115.5t-48 -116t-115 -48q-68 0 -116 48t-48 116t47.5 115.5t116.5 47.5zM304 314q68 0 115.5 -48t47.5 -116q0 -67 -48 -115t-115 -48q-68 0 -116 47.5t-48 115.5t47.5 116t116.5 48z" />
    <glyph glyph-name="semicolon" unicode=";" horiz-adv-x="606" 
d="M307 998q68 0 115.5 -47.5t47.5 -115.5t-47.5 -116t-115.5 -48t-116 48t-48 116t48 115.5t116 47.5zM470 279l-177 -537h-219l147 537h249z" />
    <glyph glyph-name="less" unicode="&#x3c;" horiz-adv-x="1364" 
d="M152 426v204l1059 409v-217l-795 -294l795 -294v-219z" />
    <glyph glyph-name="equal" unicode="=" horiz-adv-x="1364" 
d="M153 649v196h1059v-196h-1059zM153 209v196h1059v-196h-1059z" />
    <glyph glyph-name="greater" unicode="&#x3e;" horiz-adv-x="1364" 
d="M1211 426l-1059 -411v219l795 294l-795 294v217l1059 -409v-204z" />
    <glyph glyph-name="question" unicode="?" horiz-adv-x="1063" 
d="M678 434h-247v138q0 46 10 78t37 69q19 26 71 76q149 141 175.5 184.5t26.5 100.5q0 77 -51.5 127.5t-131.5 50.5q-45 0 -83.5 -17t-64 -44.5t-38.5 -58.5t-21 -83l-263 22q13 116 76.5 214t168 147.5t238.5 49.5q194 0 310 -111.5t116 -282.5q0 -76 -22.5 -135
t-62.5 -106.5t-137 -138.5q-57 -53 -76 -80t-25 -52t-6 -88v-60zM554 314q68 0 116 -48t48 -116q0 -67 -48 -115t-116 -48q-67 0 -115 47.5t-48 115.5t47.5 116t115.5 48z" />
    <glyph glyph-name="at" unicode="@" horiz-adv-x="1638" 
d="M1423 262l58 -78q-161 -118 -309 -169q-148 -52 -317 -52q-232 0 -411.5 97t-280.5 270t-101 377q0 205 104.5 389.5t300 289t420.5 104.5q195 0 357 -78.5t248 -220.5t86 -313q0 -134 -52 -252q-38 -86 -96 -149t-128.5 -100.5t-147.5 -37.5q-79 0 -124.5 42t-45.5 107
q0 19 5 45q-29 -56 -58 -89q-43 -48 -100 -76t-127 -28q-120 0 -198 84t-78 231q0 129 61 248.5t154 181.5t196 62q97 0 161 -46q43 -32 71 -99l32 112h166l-132 -448q-24 -83 -24 -124q0 -38 22.5 -60t63.5 -22q51 0 106 43q73 56 118 163t45 222q0 141 -72 258
t-207.5 179.5t-300.5 62.5q-200 0 -367.5 -90t-258 -252.5t-90.5 -343.5q0 -152 57.5 -269.5t140 -192t174.5 -114.5q142 -61 317 -61q150 0 283 46q134 46 279 151zM1010 885q0 66 -37 104t-95 38q-34 0 -66.5 -15.5t-65.5 -49.5t-61.5 -86.5t-45.5 -114.5t-17 -118
q0 -92 38 -137.5t97 -45.5q60 0 114.5 53.5t102.5 195.5q36 106 36 176z" />
    <glyph glyph-name="A" unicode="A" horiz-adv-x="1479" 
d="M420 332l-132 -332h-287l632 1455h220l625 -1455h-295l-135 332h-628zM507 555h451l-157 392q-37 93 -68 198q-31 -109 -70 -205z" />
    <glyph glyph-name="B" unicode="B" horiz-adv-x="1327" 
d="M165 1455h498q194 0 293 -40q99 -41 157.5 -130t58.5 -201q0 -111 -66 -195.5t-189 -122.5q141 -17 229 -116t88 -240q0 -105 -49.5 -192t-134.5 -141q-57 -36 -150 -56.5t-208 -20.5h-527v1455zM419 860h259q43 0 94 11q35 8 68 33.5t52 62t19 80.5q0 50 -29.5 96.5
t-79 67.5t-146.5 21h-237v-372zM419 224h261q105 0 167 23.5t95 75t33 112.5q0 59 -31.5 106t-87 72t-165.5 25h-272v-414z" />
    <glyph glyph-name="C" unicode="C" horiz-adv-x="1403" 
d="M1344 1270l-210 -173q-55 67 -134.5 102.5t-172.5 35.5q-126 0 -239 -65t-176 -186t-63 -269q0 -145 61 -259t175.5 -177t241.5 -63q210 0 328 169l226 -163q-83 -115 -219.5 -184.5t-319.5 -69.5q-255 0 -429 116.5t-262 305.5q-75 159 -75 340q0 214 100.5 389t269 270
t385.5 95q135 0 239.5 -35t177.5 -88q46 -32 96 -91z" />
    <glyph glyph-name="D" unicode="D" horiz-adv-x="1554" 
d="M168 1455h426q222 0 345 -28q124 -29 224.5 -93.5t170.5 -159t104.5 -207t34.5 -237.5q0 -151 -49 -274.5t-128 -215t-171 -143.5q-62 -35 -145 -57q-156 -40 -332 -40h-480v1455zM429 234h173q198 0 311 47q141 58 213 175.5t72 276.5q0 151 -69 264.5t-192.5 168.5
t-330.5 55h-177v-987z" />
    <glyph glyph-name="E" unicode="E" horiz-adv-x="1251" 
d="M162 1455h961v-234h-705v-360h658v-233h-658v-394h741v-234h-997v1455z" />
    <glyph glyph-name="F" unicode="F" horiz-adv-x="1175" 
d="M160 1455h940v-234h-680v-384h634v-239h-634v-598h-260v1455z" />
    <glyph glyph-name="G" unicode="G" horiz-adv-x="1593" 
d="M1418 1305l-188 -201q-142 141 -358 141q-141 0 -264 -65t-187.5 -182t-64.5 -265q0 -149 66.5 -271.5t189 -186.5t277.5 -64q79 0 159 17.5t142 47.5v334h-287v234h543v-738q-268 -137 -567 -137q-272 0 -448 111.5t-259.5 287t-83.5 362.5q0 210 98.5 388.5t280 277
t416.5 98.5q180 0 324 -56q109 -43 211 -133z" />
    <glyph glyph-name="H" unicode="H" horiz-adv-x="1517" 
d="M162 0v1455h262v-577h670v577h262v-1455h-262v649h-670v-649h-262z" />
    <glyph glyph-name="I" unicode="I" horiz-adv-x="569" 
d="M416 1455v-1455h-262v1455h262z" />
    <glyph glyph-name="J" unicode="J" horiz-adv-x="1024" 
d="M877 1455v-914q0 -168 -15 -245q-21 -105 -83 -181.5t-152.5 -111t-191.5 -34.5q-178 0 -284.5 85.5t-137.5 242.5l241 57q15 -73 62.5 -113.5t114.5 -40.5q63 0 109 36.5t65 103.5q13 49 13 187v928h259z" />
    <glyph glyph-name="K" unicode="K" horiz-adv-x="1403" 
d="M428 1455v-615h13l599 615h348l-678 -671l724 -784h-364l-629 711h-13v-711h-261v1455h261z" />
    <glyph glyph-name="L" unicode="L" horiz-adv-x="1063" 
d="M428 1455v-1221h621v-234h-887v1455h266z" />
    <glyph glyph-name="M" unicode="M" horiz-adv-x="1896" 
d="M541 1455l302 -749q69 -170 106 -326q21 87 39 140q18 54 73 191l299 744h372v-1455h-251v870q0 155 15 357h-10q-42 -175 -111 -355l-339 -872h-184l-348 892q-58 148 -96 334h-9q14 -165 14 -369v-857h-247v1455h375z" />
    <glyph glyph-name="N" unicode="N" horiz-adv-x="1630" 
d="M505 1455l582 -895q74 -113 137 -275q-12 173 -12 298v872h255v-1455h-330l-574 881q-36 55 -85 146q-31 60 -68 153q8 -98 8 -289v-891h-255v1455h342z" />
    <glyph glyph-name="O" unicode="O" horiz-adv-x="1706" 
d="M1627 714q0 -174 -75 -330q-95 -201 -269 -311t-420 -110q-403 0 -614 270q-165 211 -165 491q0 201 87 371q68 132 175.5 222t231.5 131t280 41q189 0 325.5 -59t233.5 -161t153.5 -239t56.5 -316zM1357 718q0 153 -65 276.5t-186 189t-255 65.5q-132 0 -250 -66
t-182.5 -184t-64.5 -268q0 -154 63 -273.5t176 -187t258 -67.5q218 0 362 146t144 369z" />
    <glyph glyph-name="P" unicode="P" horiz-adv-x="1251" 
d="M162 1455h470q180 0 274 -30q124 -40 201.5 -140.5t77.5 -254.5q0 -139 -69.5 -242.5t-189.5 -147.5q-92 -34 -294 -34h-209v-606h-261v1455zM423 830h181q70 0 96 3q55 5 94 18.5t67.5 39.5t43.5 62t15 77q0 69 -37.5 118.5t-112.5 70.5q-52 15 -175 15h-172v-404z" />
    <glyph glyph-name="Q" unicode="Q" horiz-adv-x="1745" 
d="M1718 209v-209h-862q-109 0 -229.5 31t-213 91.5t-168.5 161.5t-114 219t-38 239q0 196 96.5 374t269 276.5t389.5 98.5q214 0 388.5 -96.5t271.5 -270t97 -368.5q0 -105 -28.5 -201t-79.5 -170.5t-110 -123.5q-34 -28 -101 -64q150 12 262 12h170zM363 737
q0 -127 61.5 -243.5t172.5 -184t252 -67.5q137 0 249.5 64t175.5 184t63 253q0 134 -59.5 253.5t-176.5 186t-253 66.5q-115 0 -213 -48q-74 -35 -136 -98t-99 -150t-37 -216z" />
    <glyph glyph-name="R" unicode="R" horiz-adv-x="1290" 
d="M428 614v-614h-261v1455h472q152 0 241 -17q90 -17 167 -69t119 -137t42 -195q0 -112 -43.5 -199.5t-127.5 -140.5q-61 -39 -160 -57l387 -640h-312l-335 614h-189zM428 838h166q152 0 198 12q71 20 109.5 68.5t38.5 118.5q0 67 -37 115t-103 67q-48 14 -160 14h-212
v-395z" />
    <glyph glyph-name="S" unicode="S" horiz-adv-x="1175" 
d="M1061 1336l-187 -190q-42 58 -107 86.5t-142 28.5q-120 0 -185 -56t-65 -135q0 -51 27.5 -90.5t86.5 -68.5q45 -21 189 -67.5t201 -79.5q90 -52 142 -136t52 -204q0 -199 -141 -328.5t-399 -129.5q-155 0 -273.5 52.5t-196.5 140.5l194 188q53 -75 129 -113t162 -38
q117 0 185.5 60t68.5 140q0 56 -28 97.5t-77 65.5q-30 14 -171 62t-186 69q-81 39 -130.5 89.5t-77 119t-27.5 148.5q0 169 114 289q147 156 419 156q138 0 240.5 -40.5t182.5 -115.5z" />
    <glyph glyph-name="T" unicode="T" horiz-adv-x="1175" 
d="M1159 1455v-234h-441v-1221h-261v1221h-436v234h1138z" />
    <glyph glyph-name="U" unicode="U" horiz-adv-x="1479" 
d="M420 1455v-820q0 -117 9 -165q13 -71 55.5 -133t114 -96.5t149.5 -34.5q76 0 143.5 31.5t111 90t58.5 125.5q12 52 12 174v828h256v-775q0 -150 -9 -216q-14 -118 -59.5 -209t-120.5 -157t-170 -99.5t-231 -33.5q-140 0 -254.5 48t-190 140t-106.5 203t-31 309v790h263z
" />
    <glyph glyph-name="V" unicode="V" horiz-adv-x="1366" 
d="M294 1455l325 -871q34 -90 69 -270q35 157 78 271l332 870h279l-587 -1455h-220l-570 1455h294z" />
    <glyph glyph-name="W" unicode="W" horiz-adv-x="2009" 
d="M283 1455l215 -805q41 -153 61 -296q13 79 24 126q16 69 46 163l255 812h254l255 -816q25 -80 38 -136q14 -56 31 -149q19 127 63 286l222 815h269l-424 -1455h-256l-275 894q-29 93 -56 245q-20 -131 -60 -261l-274 -878h-248l-429 1455h289z" />
    <glyph glyph-name="X" unicode="X" horiz-adv-x="1403" 
d="M359 1455l274 -415q16 -26 69 -126q53 102 73 131l263 410h314l-476 -689l529 -766h-327l-301 465q-45 69 -88 147q-29 -67 -84 -153l-296 -459h-310l517 760l-483 695h326z" />
    <glyph glyph-name="Y" unicode="Y" horiz-adv-x="1290" 
d="M780 621v-621h-262v621l-542 834h322l272 -446l45 -73q16 -28 43 -80q39 82 79 146l280 453h308z" />
    <glyph glyph-name="Z" unicode="Z" horiz-adv-x="1251" 
d="M1183 234v-234h-1114v232l693 896q46 60 89 104q-67 -7 -164 -7h-600v230h1076v-224l-693 -908q-45 -59 -82 -95q49 4 210 6h585z" />
    <glyph glyph-name="bracketleft" unicode="[" horiz-adv-x="569" 
d="M528 1500v-158h-189v-1501h193v-156h-402v1815h398z" />
    <glyph glyph-name="backslash" unicode="\" horiz-adv-x="797" 
d="M5 1487l170 66l616 -1583l-170 -66z" />
    <glyph glyph-name="bracketright" unicode="]" horiz-adv-x="569" 
d="M41 1500h398v-1815h-402v156h193v1501h-189v158z" />
    <glyph glyph-name="asciicircum" unicode="^" horiz-adv-x="1364" 
d="M231 584l358 871h185l359 -871h-212l-244 610l-235 -610h-211z" />
    <glyph glyph-name="underscore" unicode="_" horiz-adv-x="1024" 
d="M0 -256v102h1024v-102h-1024z" />
    <glyph glyph-name="grave" unicode="`" 
d="M-98 1466h338l202 -294h-210z" />
    <glyph glyph-name="a" unicode="a" horiz-adv-x="1100" 
d="M739 620q-2 109 -53.5 159.5t-156.5 50.5q-72 0 -134 -26t-126 -84l-137 143q166 154 421 154q125 0 207.5 -37t134 -105.5t66.5 -148.5q12 -58 11 -194v-227q0 -205 6 -305h-223q-3 65 -4 137q-109 -163 -325 -163q-160 0 -252.5 87t-92.5 220q0 121 79.5 203.5
t240.5 113.5q114 22 338 22zM741 453q-144 -3 -177 -5q-95 -8 -147 -31.5t-74 -56.5t-22 -70q0 -55 46 -94.5t130 -39.5q78 0 136 33.5t83 93t25 170.5z" />
    <glyph glyph-name="b" unicode="b" horiz-adv-x="1290" 
d="M147 0v1550h247v-691q58 76 141.5 114t185.5 38q106 0 192.5 -37t148 -103t102.5 -161t41 -220q0 -146 -59.5 -263t-175 -183.5t-251.5 -66.5q-111 0 -196.5 43t-141.5 119v-139h-234zM376 494q0 -158 109 -242q77 -60 180 -60q123 0 205 83.5t82 215.5q0 128 -81 211.5
t-207 83.5q-87 0 -154.5 -41t-100.5 -110t-33 -141z" />
    <glyph glyph-name="c" unicode="c" horiz-adv-x="987" 
d="M976 871l-170 -173q-52 54 -101 77t-107 23q-114 0 -191.5 -83.5t-77.5 -224.5q0 -137 80 -221.5t195 -84.5q62 0 110 25t98 85l162 -179q-135 -143 -373 -143q-231 0 -376 143.5t-145 376.5q0 232 148 377.5t382 145.5q115 0 209.5 -39t156.5 -105z" />
    <glyph glyph-name="d" unicode="d" horiz-adv-x="1290" 
d="M1143 1550v-1550h-237v139q-53 -70 -135 -116t-201 -46q-212 0 -349.5 142t-137.5 372q0 229 140 374.5t346 145.5q114 0 203 -46q67 -34 125 -105v690h246zM910 502q0 125 -80 204.5t-207 79.5q-125 0 -206 -83t-81 -219q0 -127 83 -209.5t208 -82.5q120 0 201.5 85
t81.5 225z" />
    <glyph glyph-name="e" unicode="e" horiz-adv-x="1175" 
d="M1091 414h-740q18 -121 91 -184.5t184 -63.5q70 0 128 31.5t118 105.5l177 -133q-83 -101 -189 -149.5t-253 -48.5q-236 0 -374.5 150.5t-138.5 373.5q0 226 144.5 371t369.5 145q142 0 255.5 -65t171.5 -180t58 -285q0 -22 -2 -68zM841 589q-2 107 -67.5 171.5
t-166.5 64.5q-99 0 -169.5 -63t-85.5 -173h489z" />
    <glyph glyph-name="f" unicode="f" horiz-adv-x="721" 
d="M699 985v-205h-227v-780h-243v780h-203v205h203v162q0 152 30.5 235t115 133.5t222.5 50.5q80 0 151 -18l-17 -208q-61 18 -101 18q-89 0 -128 -55q-30 -41 -30 -154v-164h227z" />
    <glyph glyph-name="g" unicode="g" horiz-adv-x="1290" 
d="M1142 985v-922q0 -195 -63.5 -315.5t-185 -186.5t-310.5 -66q-146 0 -263 40.5t-219 121.5l148 203q83 -77 162 -112t172 -35q85 0 147.5 26.5t97.5 68t51 90.5t17 122l1 114q-57 -73 -134 -112t-190 -39q-244 0 -384 191q-101 139 -101 322q0 120 39.5 213.5t101 156
t145.5 102.5t192 40q106 0 193.5 -41.5t148.5 -127.5v146h234zM911 496q0 131 -81.5 213.5t-204.5 82.5q-121 0 -203 -82t-82 -208q0 -130 81 -213t206 -83q124 0 204 81t80 209z" />
    <glyph glyph-name="h" unicode="h" horiz-adv-x="1175" 
d="M388 1550v-704q43 73 124.5 116.5t180.5 43.5q89 0 158.5 -33.5t112.5 -85t62.5 -114.5t19.5 -208v-565h-245v488q0 116 -18 174.5t-62.5 90t-107.5 31.5q-67 0 -124 -36.5t-79 -99.5t-22 -186v-462h-246v1550h246z" />
    <glyph glyph-name="i" unicode="i" 
d="M266 1475q64 0 108.5 -45t44.5 -108q0 -64 -45 -108.5t-108 -44.5q-64 0 -108.5 44.5t-44.5 108.5q0 63 44.5 108t108.5 45zM389 985v-985h-246v985h246z" />
    <glyph glyph-name="j" unicode="j" 
d="M272 1475q64 0 108.5 -45t44.5 -108q0 -64 -45 -108.5t-108 -44.5q-64 0 -108.5 44.5t-44.5 108.5q0 63 44.5 108t108.5 45zM395 985v-1069q0 -144 -26 -213q-33 -92 -109.5 -142.5t-199.5 -50.5q-74 0 -130 17l18 213q44 -14 79 -14q66 0 98 55q23 40 23 133v1071h247z
" />
    <glyph glyph-name="k" unicode="k" horiz-adv-x="1100" 
d="M387 1550v-975l380 410h315l-424 -448l449 -537h-324l-396 503v-503h-246v1550h246z" />
    <glyph glyph-name="l" unicode="l" 
d="M388 1550v-1550h-247v1550h247z" />
    <glyph glyph-name="m" unicode="m" horiz-adv-x="1782" 
d="M388 0h-246v611q0 224 -3 374h234v-154q57 90 130.5 133.5t177.5 43.5q118 0 200 -57q59 -41 102 -128q53 92 128.5 138.5t186.5 46.5q98 0 169 -35.5t113 -93.5t58 -131q17 -74 17 -203v-545h-246v546q0 88 -16.5 136.5t-59 78t-102.5 29.5q-52 0 -95.5 -22t-70 -58.5
t-35.5 -83.5q-10 -47 -10 -122v-504h-246v507q0 127 -14 175t-58.5 79t-106.5 31t-113 -35t-72.5 -93t-21.5 -165v-499z" />
    <glyph glyph-name="n" unicode="n" horiz-adv-x="1175" 
d="M389 0h-246v611q0 224 -3 374h234v-160q49 83 124 131.5t193 48.5q103 0 175.5 -39t112.5 -95t54 -121q15 -65 15 -218v-532h-246v530q0 99 -18.5 148t-63 78.5t-103.5 29.5q-74 0 -131 -39t-80 -109q-17 -52 -17 -187v-451z" />
    <glyph glyph-name="o" unicode="o" horiz-adv-x="1249" 
d="M1160 464q0 -59 -26.5 -151.5t-95 -170.5t-172 -124.5t-251.5 -46.5q-237 0 -382 145t-145 379q0 236 156 378.5t382 142.5q123 0 227.5 -41t178.5 -126t107 -196q21 -70 21 -189zM910 482q0 136 -71.5 226t-212.5 90q-124 0 -206 -84.5t-82 -223.5t79.5 -222.5
t200.5 -83.5q87 0 155.5 41t102.5 110t34 147z" />
    <glyph glyph-name="p" unicode="p" horiz-adv-x="1290" 
d="M380 985v-136q131 158 336 158q189 0 326 -121q161 -142 161 -391q0 -231 -138 -375.5t-357 -144.5q-107 0 -187.5 41t-130.5 111v-598h-246v1456h236zM374 492q0 -131 81.5 -213t206.5 -82t206.5 84t81.5 217q0 129 -80.5 211t-205.5 82t-207.5 -83.5t-82.5 -215.5z" />
    <glyph glyph-name="q" unicode="q" horiz-adv-x="1290" 
d="M1146 985v-1458h-246v598q-38 -59 -120.5 -104.5t-204.5 -45.5q-252 0 -387 194q-101 144 -101 325q0 139 59.5 259.5t173.5 186.5t254 66q123 0 219 -54q66 -37 119 -106v139h234zM341 507q0 -142 81.5 -226t209.5 -84q123 0 203 82t80 214t-81 214.5t-206 82.5
q-82 0 -150 -39.5t-102.5 -105.5t-34.5 -138z" />
    <glyph glyph-name="r" unicode="r" horiz-adv-x="797" 
d="M780 986l-4 -240q-64 16 -116 16q-101 0 -161.5 -42.5t-86.5 -116.5q-18 -51 -18 -172v-431h-246v611q0 224 -3 374h244l3 -170q53 89 126 133.5t177 44.5q37 0 85 -7z" />
    <glyph glyph-name="s" unicode="s" horiz-adv-x="909" 
d="M820 869l-165 -150q-39 54 -83.5 80t-104.5 26q-66 0 -104 -33t-38 -75q0 -29 16 -51.5t49 -36t122 -31.5q136 -28 203 -62.5t103.5 -96.5t36.5 -140q0 -90 -45 -163t-140 -117.5t-236 -44.5q-140 0 -232.5 42t-158.5 114l163 155q57 -66 110 -94t121 -28q80 0 121 34.5
t41 81.5q0 30 -15.5 53.5t-42.5 37t-87 25.5q-152 30 -223.5 62.5t-112 94t-40.5 145.5q0 135 103.5 226.5t289.5 91.5q127 0 226 -47q70 -33 123 -99z" />
    <glyph glyph-name="t" unicode="t" horiz-adv-x="797" 
d="M741 985v-205h-270v-412q0 -91 23 -127q34 -52 121 -52q70 0 131 28l2 -209q-94 -29 -198 -29q-133 0 -206 48t-100 130q-16 50 -16 190v433h-205v205h209v283h239v-283h270z" />
    <glyph glyph-name="u" unicode="u" horiz-adv-x="1175" 
d="M1026 985v-621q0 -191 6 -364h-233q-4 70 -6 160q-58 -94 -132 -137t-174 -43q-136 0 -220 67t-115 174q-20 66 -20 240v524h246v-515q0 -103 19 -157t63 -84t104 -30q66 0 119 36.5t75 103.5t22 195v451h246z" />
    <glyph glyph-name="v" unicode="v" horiz-adv-x="1063" 
d="M1056 985l-386 -985h-264l-403 985h271l205 -519q31 -78 68 -226q28 128 53 197l204 548h252z" />
    <glyph glyph-name="w" unicode="w" horiz-adv-x="1630" 
d="M271 985l149 -468q44 -140 66 -253q12 72 29 142q23 92 33 123l145 456h260l154 -460q26 -77 64 -263q28 149 73 295l131 428h249l-334 -985h-244l-159 457l-40 130q-6 17 -11 36q-10 41 -24 109q-23 -133 -67 -273l-143 -459h-253l-342 985h264z" />
    <glyph glyph-name="x" unicode="x" horiz-adv-x="1100" 
d="M353 985l127 -188q41 -62 77 -134q55 95 80 133l125 189h281l-329 -460l388 -525h-299l-170 245q-44 64 -82 142q-38 -65 -91 -140l-171 -247h-292l395 525l-339 460h300z" />
    <glyph glyph-name="y" unicode="y" horiz-adv-x="1063" 
d="M281 985l209 -519q39 -97 67 -192q21 90 61 199l187 512h256l-465 -1193q-43 -112 -84.5 -165.5t-114 -88.5t-167.5 -35q-106 0 -197 30l31 210q66 -25 125 -25q71 0 113.5 29.5t71.5 103.5l56 141l-420 993h271z" />
    <glyph glyph-name="z" unicode="z" horiz-adv-x="987" 
d="M900 985v-230l-438 -462q-35 -37 -107 -91h563v-202h-847v233l443 464q35 37 94 85h-514v203h806z" />
    <glyph glyph-name="braceleft" unicode="{" horiz-adv-x="569" 
d="M-71 530v125q96 9 159.5 49.5t88.5 102.5q14 35 14 152v57q0 195 34.5 278.5t133 140.5t282.5 65v-125q-94 -9 -148.5 -48.5t-77.5 -106.5q-15 -45 -15 -178v-60q0 -92 -10 -150t-35.5 -101.5t-63 -72.5t-79 -43.5t-100.5 -22.5q109 -12 175 -61t89 -122t24 -207v-64
q0 -130 16 -177q21 -64 76.5 -103t148.5 -48v-125q-115 5 -190.5 27t-127 61t-80.5 85.5t-38 100.5q-14 82 -14 205v62q0 105 -12.5 145t-42.5 72t-80.5 55t-126.5 32z" />
    <glyph glyph-name="bar" unicode="|" horiz-adv-x="455" 
d="M125 -439v2048h206v-2048h-206z" />
    <glyph glyph-name="braceright" unicode="}" horiz-adv-x="569" 
d="M641 655v-125q-117 -14 -183 -65q-50 -39 -67 -95q-12 -39 -12 -144v-62q0 -193 -36.5 -277t-134 -139t-279.5 -63v125q91 9 147 47.5t77 101.5q17 47 17 179v64q0 183 48 260q69 111 240 130q-79 10 -133.5 37t-90 74t-49.5 108q-15 61 -15 171v60q0 132 -15 178
q-23 67 -77 106.5t-149 48.5v125q183 -8 281.5 -64.5t138.5 -151.5q30 -71 30 -268v-57q0 -105 9 -136q12 -44 43.5 -78t86 -58.5t123.5 -31.5z" />
    <glyph glyph-name="asciitilde" unicode="~" horiz-adv-x="1364" 
d="M1231 695q-18 -171 -97.5 -252.5t-194.5 -81.5q-41 0 -87 11q-101 23 -296 93q-75 26 -101 32t-48 6q-47 0 -86.5 -37.5t-50.5 -107.5h-133q10 99 39 162q40 87 104 130.5t145 43.5q39 0 77 -8q38 -9 150 -46q193 -64 236 -74q43 -11 76 -11q50 0 86 34.5t49 105.5h132z
" />
    <glyph glyph-name="Adieresis" unicode="&#xc4;" horiz-adv-x="1479" 
d="M420 332l-132 -332h-287l632 1455h220l625 -1455h-295l-135 332h-628zM507 555h451l-157 392q-37 93 -68 198q-31 -109 -70 -205zM510 1848q64 0 108.5 -45t44.5 -108q0 -64 -45 -108.5t-108 -44.5q-64 0 -108.5 44.5t-44.5 108.5q0 63 44.5 108t108.5 45zM969 1848
q63 0 107.5 -45t44.5 -108q0 -64 -44.5 -108.5t-107.5 -44.5q-64 0 -108.5 44.5t-44.5 108.5q0 63 44.5 108t108.5 45z" />
    <glyph glyph-name="Aring" unicode="&#xc5;" horiz-adv-x="1479" 
d="M420 332l-132 -332h-287l632 1455h220l625 -1455h-295l-135 332h-628zM507 555h451l-157 392q-37 93 -68 198q-31 -109 -70 -205zM745 1928q55 0 106.5 -28t80.5 -79.5t29 -107.5q0 -89 -63 -152.5t-153 -63.5q-89 0 -152 63t-63 153q0 56 29 108t80.5 79.5t105.5 27.5z
M745 1827q-47 0 -80.5 -33.5t-33.5 -80.5q0 -48 33.5 -81t80.5 -33q48 0 81.5 33t33.5 81q0 47 -33.5 80.5t-81.5 33.5z" />
    <glyph glyph-name="Ccedilla" unicode="&#xc7;" horiz-adv-x="1403" 
d="M1344 1270l-210 -173q-55 67 -134.5 102.5t-172.5 35.5q-126 0 -239 -65t-176 -186t-63 -269q0 -145 61 -259t175.5 -177t241.5 -63q210 0 328 169l226 -163q-80 -110 -208.5 -178.5t-304.5 -75.5l-79 -114q31 7 58 7q89 0 140 -47.5t51 -114.5q0 -81 -70.5 -140
t-208.5 -59q-119 0 -224 51l45 96q88 -40 166 -40q64 0 92 22.5t28 53.5q0 28 -26.5 50.5t-73.5 22.5q-34 0 -82 -14l-54 51l123 179q-147 16 -260.5 68t-205.5 149.5t-145 219.5q-66 151 -66 321q0 214 100.5 389t269 270t385.5 95q135 0 239.5 -35t177.5 -88
q46 -32 96 -91z" />
    <glyph glyph-name="Eacute" unicode="&#xc9;" horiz-adv-x="1251" 
d="M162 1455h961v-234h-705v-360h658v-233h-658v-394h741v-234h-997v1455zM1036 1843l-330 -294h-210l203 294h337z" />
    <glyph glyph-name="Ntilde" unicode="&#xd1;" horiz-adv-x="1630" 
d="M505 1455l582 -895q74 -113 137 -275q-12 173 -12 298v872h255v-1455h-330l-574 881q-36 55 -85 146q-31 60 -68 153q8 -98 8 -289v-891h-255v1455h342zM1194 1824q-24 -134 -83 -191.5t-143 -57.5q-36 0 -75.5 9.5t-129.5 42.5q-47 17 -60 20q-19 4 -33 4
q-31 0 -54.5 -19.5t-39.5 -68.5h-137q22 130 88.5 194.5t154.5 64.5q32 0 75 -11q32 -9 100 -39q52 -23 66 -27q21 -6 41 -6q32 0 55 18.5t40 66.5h135z" />
    <glyph glyph-name="Odieresis" unicode="&#xd6;" horiz-adv-x="1706" 
d="M1627 714q0 -174 -75 -330q-95 -201 -269 -311t-420 -110q-403 0 -614 270q-165 211 -165 491q0 201 87 371q68 132 175.5 222t231.5 131t280 41q189 0 325.5 -59t233.5 -161t153.5 -239t56.5 -316zM1357 718q0 153 -65 276.5t-186 189t-255 65.5q-132 0 -250 -66
t-182.5 -184t-64.5 -268q0 -154 63 -273.5t176 -187t258 -67.5q218 0 362 146t144 369zM627 1849q64 0 108.5 -45t44.5 -108q0 -64 -45 -108.5t-108 -44.5q-64 0 -108.5 44.5t-44.5 108.5q0 63 44.5 108t108.5 45zM1086 1849q63 0 107.5 -45t44.5 -108q0 -64 -44.5 -108.5
t-107.5 -44.5q-64 0 -108.5 44.5t-44.5 108.5q0 63 44.5 108t108.5 45z" />
    <glyph glyph-name="Udieresis" unicode="&#xdc;" horiz-adv-x="1479" 
d="M420 1455v-820q0 -117 9 -165q13 -71 55.5 -133t114 -96.5t149.5 -34.5q76 0 143.5 31.5t111 90t58.5 125.5q12 52 12 174v828h256v-775q0 -150 -9 -216q-14 -118 -59.5 -209t-120.5 -157t-170 -99.5t-231 -33.5q-140 0 -254.5 48t-190 140t-106.5 203t-31 309v790h263z
M529 1848q64 0 108.5 -45t44.5 -108q0 -64 -45 -108.5t-108 -44.5q-64 0 -108.5 44.5t-44.5 108.5q0 63 44.5 108t108.5 45zM988 1848q63 0 107.5 -45t44.5 -108q0 -64 -44.5 -108.5t-107.5 -44.5q-64 0 -108.5 44.5t-44.5 108.5q0 63 44.5 108t108.5 45z" />
    <glyph glyph-name="aacute" unicode="&#xe1;" horiz-adv-x="1100" 
d="M739 620q-2 109 -53.5 159.5t-156.5 50.5q-72 0 -134 -26t-126 -84l-137 143q166 154 421 154q125 0 207.5 -37t134 -105.5t66.5 -148.5q12 -58 11 -194v-227q0 -205 6 -305h-223q-3 65 -4 137q-109 -163 -325 -163q-160 0 -252.5 87t-92.5 220q0 121 79.5 203.5
t240.5 113.5q114 22 338 22zM741 453q-144 -3 -177 -5q-95 -8 -147 -31.5t-74 -56.5t-22 -70q0 -55 46 -94.5t130 -39.5q78 0 136 33.5t83 93t25 170.5zM967 1467l-330 -294h-210l203 294h337z" />
    <glyph glyph-name="agrave" unicode="&#xe0;" horiz-adv-x="1100" 
d="M739 620q-2 109 -53.5 159.5t-156.5 50.5q-72 0 -134 -26t-126 -84l-137 143q166 154 421 154q125 0 207.5 -37t134 -105.5t66.5 -148.5q12 -58 11 -194v-227q0 -205 6 -305h-223q-3 65 -4 137q-109 -163 -325 -163q-160 0 -252.5 87t-92.5 220q0 121 79.5 203.5
t240.5 113.5q114 22 338 22zM741 453q-144 -3 -177 -5q-95 -8 -147 -31.5t-74 -56.5t-22 -70q0 -55 46 -94.5t130 -39.5q78 0 136 33.5t83 93t25 170.5zM164 1467h338l202 -294h-210z" />
    <glyph glyph-name="acircumflex" unicode="&#xe2;" horiz-adv-x="1100" 
d="M739 620q-2 109 -53.5 159.5t-156.5 50.5q-72 0 -134 -26t-126 -84l-137 143q166 154 421 154q125 0 207.5 -37t134 -105.5t66.5 -148.5q12 -58 11 -194v-227q0 -205 6 -305h-223q-3 65 -4 137q-109 -163 -325 -163q-160 0 -252.5 87t-92.5 220q0 121 79.5 203.5
t240.5 113.5q114 22 338 22zM741 453q-144 -3 -177 -5q-95 -8 -147 -31.5t-74 -56.5t-22 -70q0 -55 46 -94.5t130 -39.5q78 0 136 33.5t83 93t25 170.5zM929 1173h-232l-142 185l-141 -185h-227l236 299h273z" />
    <glyph glyph-name="adieresis" unicode="&#xe4;" horiz-adv-x="1100" 
d="M739 620q-2 109 -53.5 159.5t-156.5 50.5q-72 0 -134 -26t-126 -84l-137 143q166 154 421 154q125 0 207.5 -37t134 -105.5t66.5 -148.5q12 -58 11 -194v-227q0 -205 6 -305h-223q-3 65 -4 137q-109 -163 -325 -163q-160 0 -252.5 87t-92.5 220q0 121 79.5 203.5
t240.5 113.5q114 22 338 22zM741 453q-144 -3 -177 -5q-95 -8 -147 -31.5t-74 -56.5t-22 -70q0 -55 46 -94.5t130 -39.5q78 0 136 33.5t83 93t25 170.5zM321 1473q64 0 108.5 -45t44.5 -108q0 -64 -45 -108.5t-108 -44.5q-64 0 -108.5 44.5t-44.5 108.5q0 63 44.5 108
t108.5 45zM780 1473q63 0 107.5 -45t44.5 -108q0 -64 -44.5 -108.5t-107.5 -44.5q-64 0 -108.5 44.5t-44.5 108.5q0 63 44.5 108t108.5 45z" />
    <glyph glyph-name="atilde" unicode="&#xe3;" horiz-adv-x="1100" 
d="M739 620q-2 109 -53.5 159.5t-156.5 50.5q-72 0 -134 -26t-126 -84l-137 143q166 154 421 154q125 0 207.5 -37t134 -105.5t66.5 -148.5q12 -58 11 -194v-227q0 -205 6 -305h-223q-3 65 -4 137q-109 -163 -325 -163q-160 0 -252.5 87t-92.5 220q0 121 79.5 203.5
t240.5 113.5q114 22 338 22zM741 453q-144 -3 -177 -5q-95 -8 -147 -31.5t-74 -56.5t-22 -70q0 -55 46 -94.5t130 -39.5q78 0 136 33.5t83 93t25 170.5zM928 1449q-24 -134 -83 -191.5t-143 -57.5q-36 0 -75.5 9.5t-129.5 42.5q-47 17 -60 20q-19 4 -33 4q-31 0 -54.5 -19.5
t-39.5 -68.5h-137q22 130 88.5 194.5t154.5 64.5q32 0 75 -11q32 -9 100 -39q52 -23 66 -27q21 -6 41 -6q32 0 55 18.5t40 66.5h135z" />
    <glyph glyph-name="aring" unicode="&#xe5;" horiz-adv-x="1100" 
d="M739 620q-2 109 -53.5 159.5t-156.5 50.5q-72 0 -134 -26t-126 -84l-137 143q166 154 421 154q125 0 207.5 -37t134 -105.5t66.5 -148.5q12 -58 11 -194v-227q0 -205 6 -305h-223q-3 65 -4 137q-109 -163 -325 -163q-160 0 -252.5 87t-92.5 220q0 121 79.5 203.5
t240.5 113.5q114 22 338 22zM741 453q-144 -3 -177 -5q-95 -8 -147 -31.5t-74 -56.5t-22 -70q0 -55 46 -94.5t130 -39.5q78 0 136 33.5t83 93t25 170.5zM547 1571q55 0 106.5 -28t80.5 -79.5t29 -107.5q0 -89 -63 -152.5t-153 -63.5q-89 0 -152 63t-63 153q0 56 29 108
t80.5 79.5t105.5 27.5zM547 1470q-47 0 -80.5 -33.5t-33.5 -80.5q0 -48 33.5 -81t80.5 -33q48 0 81.5 33t33.5 81q0 47 -33.5 80.5t-81.5 33.5z" />
    <glyph glyph-name="ccedilla" unicode="&#xe7;" horiz-adv-x="987" 
d="M976 871l-170 -173q-52 54 -101 77t-107 23q-114 0 -191.5 -83.5t-77.5 -224.5q0 -137 80 -221.5t195 -84.5q62 0 110 25t98 85l162 -179q-122 -130 -328 -142l-78 -113q41 8 68 8q80 0 130.5 -47.5t50.5 -112.5q0 -82 -70 -141t-208 -59q-116 0 -225 51l45 96
q81 -40 168 -40q61 0 89.5 23t28.5 53q0 28 -26.5 50.5t-74.5 22.5q-34 0 -80 -14l-54 51l119 175q-80 9 -138 32q-96 39 -165.5 106.5t-107.5 161t-38 216.5q0 232 148 377.5t382 145.5q115 0 209.5 -39t156.5 -105z" />
    <glyph glyph-name="eacute" unicode="&#xe9;" horiz-adv-x="1175" 
d="M1091 414h-740q18 -121 91 -184.5t184 -63.5q70 0 128 31.5t118 105.5l177 -133q-83 -101 -189 -149.5t-253 -48.5q-236 0 -374.5 150.5t-138.5 373.5q0 226 144.5 371t369.5 145q142 0 255.5 -65t171.5 -180t58 -285q0 -22 -2 -68zM841 589q-2 107 -67.5 171.5
t-166.5 64.5q-99 0 -169.5 -63t-85.5 -173h489zM981 1462l-330 -294h-210l203 294h337z" />
    <glyph glyph-name="egrave" unicode="&#xe8;" horiz-adv-x="1175" 
d="M1091 414h-740q18 -121 91 -184.5t184 -63.5q70 0 128 31.5t118 105.5l177 -133q-83 -101 -189 -149.5t-253 -48.5q-236 0 -374.5 150.5t-138.5 373.5q0 226 144.5 371t369.5 145q142 0 255.5 -65t171.5 -180t58 -285q0 -22 -2 -68zM841 589q-2 107 -67.5 171.5
t-166.5 64.5q-99 0 -169.5 -63t-85.5 -173h489zM226 1462h338l202 -294h-210z" />
    <glyph glyph-name="ecircumflex" unicode="&#xea;" horiz-adv-x="1175" 
d="M1091 414h-740q18 -121 91 -184.5t184 -63.5q70 0 128 31.5t118 105.5l177 -133q-83 -101 -189 -149.5t-253 -48.5q-236 0 -374.5 150.5t-138.5 373.5q0 226 144.5 371t369.5 145q142 0 255.5 -65t171.5 -180t58 -285q0 -22 -2 -68zM841 589q-2 107 -67.5 171.5
t-166.5 64.5q-99 0 -169.5 -63t-85.5 -173h489zM968 1168h-232l-142 185l-141 -185h-227l236 299h273z" />
    <glyph glyph-name="edieresis" unicode="&#xeb;" horiz-adv-x="1175" 
d="M1091 414h-740q18 -121 91 -184.5t184 -63.5q70 0 128 31.5t118 105.5l177 -133q-83 -101 -189 -149.5t-253 -48.5q-236 0 -374.5 150.5t-138.5 373.5q0 226 144.5 371t369.5 145q142 0 255.5 -65t171.5 -180t58 -285q0 -22 -2 -68zM841 589q-2 107 -67.5 171.5
t-166.5 64.5q-99 0 -169.5 -63t-85.5 -173h489zM360 1467q64 0 108.5 -45t44.5 -108q0 -64 -45 -108.5t-108 -44.5q-64 0 -108.5 44.5t-44.5 108.5q0 63 44.5 108t108.5 45zM819 1467q63 0 107.5 -45t44.5 -108q0 -64 -44.5 -108.5t-107.5 -44.5q-64 0 -108.5 44.5
t-44.5 108.5q0 63 44.5 108t108.5 45z" />
    <glyph glyph-name="iacute" unicode="&#xed;" 
d="M389 985v-985h-246v985h246zM675 1464l-330 -294h-210l203 294h337z" />
    <glyph glyph-name="igrave" unicode="&#xec;" 
d="M389 985v-985h-246v985h246zM-145 1464h338l202 -294h-210z" />
    <glyph glyph-name="icircumflex" unicode="&#xee;" 
d="M389 985v-985h-246v985h246zM648 1170h-232l-142 185l-141 -185h-227l236 299h273z" />
    <glyph glyph-name="idieresis" unicode="&#xef;" 
d="M389 985v-985h-246v985h246zM40 1469q64 0 108.5 -45t44.5 -108q0 -64 -45 -108.5t-108 -44.5q-64 0 -108.5 44.5t-44.5 108.5q0 63 44.5 108t108.5 45zM499 1469q63 0 107.5 -45t44.5 -108q0 -64 -44.5 -108.5t-107.5 -44.5q-64 0 -108.5 44.5t-44.5 108.5
q0 63 44.5 108t108.5 45z" />
    <glyph glyph-name="ntilde" unicode="&#xf1;" horiz-adv-x="1175" 
d="M389 0h-246v611q0 224 -3 374h234v-160q49 83 124 131.5t193 48.5q103 0 175.5 -39t112.5 -95t54 -121q15 -65 15 -218v-532h-246v530q0 99 -18.5 148t-63 78.5t-103.5 29.5q-74 0 -131 -39t-80 -109q-17 -52 -17 -187v-451zM987 1436q-24 -134 -83 -191.5t-143 -57.5
q-36 0 -75.5 9.5t-129.5 42.5q-47 17 -60 20q-19 4 -33 4q-31 0 -54.5 -19.5t-39.5 -68.5h-137q22 130 88.5 194.5t154.5 64.5q32 0 75 -11q32 -9 100 -39q52 -23 66 -27q21 -6 41 -6q32 0 55 18.5t40 66.5h135z" />
    <glyph glyph-name="oacute" unicode="&#xf3;" horiz-adv-x="1249" 
d="M1160 464q0 -59 -26.5 -151.5t-95 -170.5t-172 -124.5t-251.5 -46.5q-237 0 -382 145t-145 379q0 236 156 378.5t382 142.5q123 0 227.5 -41t178.5 -126t107 -196q21 -70 21 -189zM910 482q0 136 -71.5 226t-212.5 90q-124 0 -206 -84.5t-82 -223.5t79.5 -222.5
t200.5 -83.5q87 0 155.5 41t102.5 110t34 147zM1014 1466l-330 -294h-210l203 294h337z" />
    <glyph glyph-name="ograve" unicode="&#xf2;" horiz-adv-x="1249" 
d="M1160 464q0 -59 -26.5 -151.5t-95 -170.5t-172 -124.5t-251.5 -46.5q-237 0 -382 145t-145 379q0 236 156 378.5t382 142.5q123 0 227.5 -41t178.5 -126t107 -196q21 -70 21 -189zM910 482q0 136 -71.5 226t-212.5 90q-124 0 -206 -84.5t-82 -223.5t79.5 -222.5
t200.5 -83.5q87 0 155.5 41t102.5 110t34 147zM235 1466h338l202 -294h-210z" />
    <glyph glyph-name="ocircumflex" unicode="&#xf4;" horiz-adv-x="1249" 
d="M1160 464q0 -59 -26.5 -151.5t-95 -170.5t-172 -124.5t-251.5 -46.5q-237 0 -382 145t-145 379q0 236 156 378.5t382 142.5q123 0 227.5 -41t178.5 -126t107 -196q21 -70 21 -189zM910 482q0 136 -71.5 226t-212.5 90q-124 0 -206 -84.5t-82 -223.5t79.5 -222.5
t200.5 -83.5q87 0 155.5 41t102.5 110t34 147zM1000 1172h-232l-142 185l-141 -185h-227l236 299h273z" />
    <glyph glyph-name="odieresis" unicode="&#xf6;" horiz-adv-x="1249" 
d="M1160 464q0 -59 -26.5 -151.5t-95 -170.5t-172 -124.5t-251.5 -46.5q-237 0 -382 145t-145 379q0 236 156 378.5t382 142.5q123 0 227.5 -41t178.5 -126t107 -196q21 -70 21 -189zM910 482q0 136 -71.5 226t-212.5 90q-124 0 -206 -84.5t-82 -223.5t79.5 -222.5
t200.5 -83.5q87 0 155.5 41t102.5 110t34 147zM392 1472q64 0 108.5 -45t44.5 -108q0 -64 -45 -108.5t-108 -44.5q-64 0 -108.5 44.5t-44.5 108.5q0 63 44.5 108t108.5 45zM851 1472q63 0 107.5 -45t44.5 -108q0 -64 -44.5 -108.5t-107.5 -44.5q-64 0 -108.5 44.5
t-44.5 108.5q0 63 44.5 108t108.5 45z" />
    <glyph glyph-name="otilde" unicode="&#xf5;" horiz-adv-x="1249" 
d="M1160 464q0 -59 -26.5 -151.5t-95 -170.5t-172 -124.5t-251.5 -46.5q-237 0 -382 145t-145 379q0 236 156 378.5t382 142.5q123 0 227.5 -41t178.5 -126t107 -196q21 -70 21 -189zM910 482q0 136 -71.5 226t-212.5 90q-124 0 -206 -84.5t-82 -223.5t79.5 -222.5
t200.5 -83.5q87 0 155.5 41t102.5 110t34 147zM999 1448q-24 -134 -83 -191.5t-143 -57.5q-36 0 -75.5 9.5t-129.5 42.5q-47 17 -60 20q-19 4 -33 4q-31 0 -54.5 -19.5t-39.5 -68.5h-137q22 130 88.5 194.5t154.5 64.5q32 0 75 -11q32 -9 100 -39q52 -23 66 -27q21 -6 41 -6
q32 0 55 18.5t40 66.5h135z" />
    <glyph glyph-name="uacute" unicode="&#xfa;" horiz-adv-x="1175" 
d="M1026 985v-621q0 -191 6 -364h-233q-4 70 -6 160q-58 -94 -132 -137t-174 -43q-136 0 -220 67t-115 174q-20 66 -20 240v524h246v-515q0 -103 19 -157t63 -84t104 -30q66 0 119 36.5t75 103.5t22 195v451h246zM954 1463l-330 -294h-210l203 294h337z" />
    <glyph glyph-name="ugrave" unicode="&#xf9;" horiz-adv-x="1175" 
d="M1026 985v-621q0 -191 6 -364h-233q-4 70 -6 160q-58 -94 -132 -137t-174 -43q-136 0 -220 67t-115 174q-20 66 -20 240v524h246v-515q0 -103 19 -157t63 -84t104 -30q66 0 119 36.5t75 103.5t22 195v451h246zM188 1463h338l202 -294h-210z" />
    <glyph glyph-name="ucircumflex" unicode="&#xfb;" horiz-adv-x="1175" 
d="M1026 985v-621q0 -191 6 -364h-233q-4 70 -6 160q-58 -94 -132 -137t-174 -43q-136 0 -220 67t-115 174q-20 66 -20 240v524h246v-515q0 -103 19 -157t63 -84t104 -30q66 0 119 36.5t75 103.5t22 195v451h246zM965 1169h-232l-142 185l-141 -185h-227l236 299h273z" />
    <glyph glyph-name="udieresis" unicode="&#xfc;" horiz-adv-x="1175" 
d="M1026 985v-621q0 -191 6 -364h-233q-4 70 -6 160q-58 -94 -132 -137t-174 -43q-136 0 -220 67t-115 174q-20 66 -20 240v524h246v-515q0 -103 19 -157t63 -84t104 -30q66 0 119 36.5t75 103.5t22 195v451h246zM358 1468q64 0 108.5 -45t44.5 -108q0 -64 -45 -108.5
t-108 -44.5q-64 0 -108.5 44.5t-44.5 108.5q0 63 44.5 108t108.5 45zM817 1468q63 0 107.5 -45t44.5 -108q0 -64 -44.5 -108.5t-107.5 -44.5q-64 0 -108.5 44.5t-44.5 108.5q0 63 44.5 108t108.5 45z" />
    <glyph glyph-name="dagger" unicode="&#x2020;" horiz-adv-x="1214" 
d="M726 1455v-420h405v-202h-405v-1095h-230v1095h-407v202h407v420h230z" />
    <glyph glyph-name="degree" unicode="&#xb0;" horiz-adv-x="819" 
d="M410 1487q83 0 162 -42.5t123.5 -122t44.5 -165.5q0 -85 -43.5 -163.5t-122 -122.5t-164.5 -44t-164.5 44t-122 122.5t-43.5 163.5q0 86 44.5 165.5t123.5 122t162 42.5zM410 1319q-68 0 -115 -47.5t-47 -114.5t47.5 -114.5t114.5 -47.5t114.5 47.5t47.5 114.5
t-47.5 114.5t-114.5 47.5z" />
    <glyph glyph-name="cent" unicode="&#xa2;" horiz-adv-x="1212" 
d="M730 1145v-131q223 -9 354 -144l-169 -170q-46 49 -88 72t-97 30v-621q52 3 102 31.5t90 75.5l160 -177q-62 -60 -152.5 -96.5t-199.5 -40.5v-143h-116v143q-131 10 -239 80t-165 185t-57 257q0 210 121.5 348.5t340.5 169.5v131h115zM614 800q-104 -25 -163 -103.5
t-59 -203.5q0 -121 60.5 -200.5t161.5 -104.5v612z" />
    <glyph glyph-name="sterling" unicode="&#xa3;" horiz-adv-x="1212" 
d="M923 832v-174h-327v-464h509v-194h-966v194h207v464h-200v174h200v109q0 191 53.5 301t167 178t263.5 68q227 0 378 -134l-164 -183q-50 47 -100 68.5t-113 21.5q-64 0 -111.5 -26.5t-77 -69.5t-36.5 -89q-10 -66 -10 -119v-125h327z" />
    <glyph glyph-name="section" unicode="&#xa7;" horiz-adv-x="1214" 
d="M1030 1283l-215 -121q-29 66 -82.5 95.5t-116.5 29.5q-79 0 -122.5 -38.5t-43.5 -95.5q0 -39 21.5 -69.5t72.5 -58.5q39 -21 182 -85q144 -65 204 -107q61 -42 98 -106t37 -140t-40.5 -146t-126.5 -117q128 -93 128 -245q0 -145 -123.5 -253.5t-342.5 -108.5
q-334 0 -451 253l219 106q19 -64 81 -106.5t156 -42.5q93 0 140 39.5t47 95.5q0 35 -17 62t-50 47q-24 15 -109 54q-227 104 -279 135q-69 42 -113 109.5t-44 156.5q0 69 25.5 125t68.5 97q32 29 99 69q-140 92 -140 235q0 85 48.5 165.5t147 126t225.5 45.5q89 0 174 -22.5
t147 -71t95 -112.5zM488 809q-65 -30 -90 -62.5t-25 -80.5q0 -39 17 -68t55 -54q29 -19 107 -56l189 -89q43 25 69 65t26 81q0 50 -33.5 90.5t-140.5 91.5z" />
    <glyph glyph-name="bullet" unicode="&#x2022;" horiz-adv-x="1024" 
d="M513 1092q91 0 178.5 -47t136.5 -135t49 -182q0 -95 -48 -181.5t-135 -135t-182 -48.5q-94 0 -181 48.5t-135 135t-48 181.5q0 94 49 182t136.5 135t179.5 47z" />
    <glyph glyph-name="paragraph" unicode="&#xb6;" horiz-adv-x="1229" 
d="M1165 1298h-110v-1674h-192v1674h-227v-1674h-191v867q-88 9 -137 27q-77 29 -139 89t-95.5 147t-33.5 197q0 133 49.5 233.5t133.5 167.5q55 44 146.5 73.5t207.5 29.5h588v-157z" />
    <glyph glyph-name="germandbls" unicode="&#xdf;" horiz-adv-x="1251" 
d="M577 759v207q17 -1 26 -1q60 0 109.5 25t75 71.5t25.5 101.5q0 83 -57.5 138t-149.5 55q-107 0 -168.5 -67.5t-61.5 -205.5v-1083h-247v1088q-1 165 53 264t164 160t268 61q210 0 326 -107.5t116 -267.5q0 -73 -24 -138t-70.5 -109t-121.5 -76q80 -11 157 -60
t126.5 -141.5t49.5 -224.5q0 -115 -38 -200t-101 -143t-130 -87q-95 -41 -226 -41q-77 0 -156 19v207q48 -17 100 -17q142 0 223.5 78t81.5 202q0 135 -82 214t-232 79q-12 0 -36 -1z" />
    <glyph glyph-name="registered" unicode="&#xae;" horiz-adv-x="1638" 
d="M614 1489q94 0 184.5 -48.5t141 -138.5t50.5 -188t-50 -187.5t-139 -139t-186 -49.5q-98 0 -187.5 49.5t-139 139t-49.5 187.5t50.5 188t141 138.5t183.5 48.5zM614 1425q-77 0 -152 -40.5t-116.5 -115t-41.5 -155.5t41 -155t115 -115.5t154 -41.5q81 0 155 41.5
t115 115.5t41 155q0 80 -41.5 155t-116.5 115.5t-153 40.5zM573 1073v-164h-93v412h139q77 0 114 -23q51 -33 51 -100q0 -43 -20 -71.5t-63 -42.5l103 -175h-107l-91 164h-33zM573 1156h34q47 0 60 6q22 11 22 36q0 19 -14 30t-56 11h-46v-83z" />
    <glyph glyph-name="copyright" unicode="&#xa9;" horiz-adv-x="1638" 
d="M819 1489q193 0 375.5 -98.5t285 -282t102.5 -382.5q0 -125 -38 -239q-39 -115 -105 -207q-67 -92 -161 -164t-213.5 -112.5t-245.5 -40.5q-166 0 -306 64t-233.5 159.5t-148.5 209.5q-75 156 -75 330q0 199 102.5 382.5t285.5 282t375 98.5zM819 1388q-166 0 -325 -85.5
t-248 -245t-89 -331.5q0 -150 65 -286q48 -99 129 -181.5t202 -138t266 -55.5q151 0 286 64q99 48 181 129q83 81 139 202t56 266q0 172 -89 331.5t-247.5 245t-325.5 85.5zM1148 1048l-130 -107q-69 83 -180 83q-117 0 -198 -84t-81 -217q0 -140 85.5 -215t192.5 -75
q63 0 113 27q37 20 80 74l140 -100q-61 -77 -137.5 -115.5t-186.5 -38.5q-230 0 -358 164q-97 124 -97 287q0 168 101 291q128 156 348 156q113 0 200 -44q58 -29 108 -86z" />
    <glyph glyph-name="trademark" unicode="&#x2122;" horiz-adv-x="2048" 
d="M893 726v729h214l184 -513l185 513h210v-729h-130v599l-211 -599h-111l-211 599v-599h-130zM397 726v609h-235v114h612v-114h-233v-609h-144z" />
    <glyph glyph-name="acute" unicode="&#xb4;" 
d="M630 1466l-330 -294h-210l203 294h337z" />
    <glyph glyph-name="dieresis" unicode="&#xa8;" 
d="M37 1475q64 0 108.5 -45t44.5 -108q0 -64 -45 -108.5t-108 -44.5q-64 0 -108.5 44.5t-44.5 108.5q0 63 44.5 108t108.5 45zM496 1475q63 0 107.5 -45t44.5 -108q0 -64 -44.5 -108.5t-107.5 -44.5q-64 0 -108.5 44.5t-44.5 108.5q0 63 44.5 108t108.5 45z" />
    <glyph glyph-name="notequal" unicode="&#x2260;" horiz-adv-x="1364" 
d="M511 405l125 244h-483v196h583l159 309l171 -87l-114 -222h260v-196h-360l-126 -244h486v-196h-585l-159 -308l-171 87l114 221h-258v196h358z" />
    <glyph glyph-name="AE" unicode="&#xc6;" horiz-adv-x="2048" 
d="M1325 1221v-356h551v-232h-551v-399h621v-234h-876v378h-548l-232 -378h-315l928 1455h1016v-234h-594zM657 605h413v616h-30z" />
    <glyph glyph-name="Oslash" unicode="&#xd8;" horiz-adv-x="1706" 
d="M1599 1449l-172 -186q203 -230 203 -540q0 -215 -99 -389.5t-268.5 -273t-407.5 -98.5q-171 0 -283 40t-197 115l-183 -200l-100 89l182 201q-187 212 -187 515q0 222 103.5 403.5t277 274.5t393.5 93q145 0 257 -37.5t207 -107.5l174 191zM1147 1158q-73 47 -128 65
q-80 25 -165 25q-74 0 -149 -22t-137 -66t-110.5 -106.5t-75 -146.5t-26.5 -179q0 -90 25.5 -174.5t73.5 -150.5zM550 308q56 -46 136.5 -75.5t167.5 -29.5q216 0 362.5 148t146.5 377q0 99 -29.5 187t-84.5 153z" />
    <glyph glyph-name="infinity" unicode="&#x221e;" horiz-adv-x="1631" 
d="M817 641q81 92 139 140.5t121 75t133 26.5q132 0 231.5 -90t99.5 -260q0 -161 -93.5 -258.5t-237.5 -97.5q-93 0 -182.5 48.5t-210.5 179.5q-94 -95 -136 -127q-67 -52 -127 -75.5t-130 -23.5q-145 0 -239.5 97t-94.5 253q0 159 93 255.5t235 96.5q98 0 186.5 -50
t212.5 -190zM924 524q99 -101 164 -135t125 -34q70 0 115.5 46.5t45.5 125.5q0 82 -46.5 130.5t-119.5 48.5q-52 0 -114.5 -34.5t-169.5 -147.5zM708 525q-108 107 -182 148q-57 31 -110 31q-65 0 -112 -49t-47 -128q0 -78 45.5 -124.5t120.5 -46.5q69 0 142.5 47t142.5 122
z" />
    <glyph glyph-name="plusminus" unicode="&#xb1;" horiz-adv-x="1364" 
d="M578 234v326h-425v195h425v333h209v-333h425v-195h-425v-326h-209zM153 -34v196h1059v-196h-1059z" />
    <glyph glyph-name="lessequal" unicode="&#x2264;" horiz-adv-x="1364" 
d="M153 555v199l1059 369v-207l-791 -260l791 -252v-207zM153 126h1059v-195h-1059v195z" />
    <glyph glyph-name="greaterequal" unicode="&#x2265;" horiz-adv-x="1364" 
d="M1212 555l-1059 -358v207l791 252l-791 260v207l1059 -369v-199zM1212 126v-195h-1059v195h1059z" />
    <glyph glyph-name="yen" unicode="&#xa5;" horiz-adv-x="1212" 
d="M779 0h-262v318h-303v152h303v151h-303v152h220l-386 682h324l284 -599l284 599h307l-384 -682h219v-152h-303v-151h303v-152h-303v-318z" />
    <glyph glyph-name="mu" unicode="&#xb5;" horiz-adv-x="1176" 
d="M138 -432v1417h231v-431q0 -169 21 -240q22 -72 73 -106.5t122 -34.5q119 0 171 87q52 88 52 290v435h230v-985h-201v128q-32 -48 -56 -71q-35 -34 -84 -55t-112 -21q-77 0 -136 31q-42 23 -82 73v-517h-229z" />
    <glyph glyph-name="partialdiff" unicode="&#x2202;" horiz-adv-x="1107" 
d="M242 1224l-111 131q92 71 172 101.5t175 30.5q236 0 393 -183.5t157 -564.5q0 -172 -27.5 -306.5t-75.5 -220t-106 -136.5t-133.5 -79.5t-170.5 -28.5q-227 0 -351 171q-93 128 -93 299q0 129 55.5 234.5t158 161.5t221.5 56q173 0 310 -128q1 35 1 52q0 166 -44 285
t-120 171.5t-167 52.5q-61 0 -118.5 -23t-125.5 -76zM811 585q-62 74 -129 110.5t-146 36.5q-114 0 -188.5 -80.5t-74.5 -223.5q0 -93 32.5 -162.5t91.5 -104.5t125 -35q130 0 211.5 128.5t77.5 330.5z" />
    <glyph glyph-name="summation" unicode="&#x2211;" horiz-adv-x="1305" 
d="M1229 1609v-189h-875l580 -822l-618 -847h937v-190h-1202v167l633 868l-606 849v164h1151z" />
    <glyph glyph-name="product" unicode="&#x220f;" horiz-adv-x="1502" 
d="M1372 1609v-2048h-209v1859h-823v-1859h-209v2048h1241z" />
    <glyph glyph-name="pi" unicode="&#x3c0;" horiz-adv-x="1222" 
d="M1170 985v-205h-162v-471q0 -84 18.5 -107.5t58.5 -23.5q36 0 90 23v-172q-54 -25 -94 -35t-86 -10q-61 0 -106.5 21.5t-70 53.5t-33 71.5t-8.5 126.5v523h-402v-780h-230v780h-143v205h1168z" />
    <glyph glyph-name="integral" unicode="&#x222b;" horiz-adv-x="1207" 
d="M667 1152v-1004q1 -278 -19 -373t-92.5 -154.5t-170.5 -59.5q-89 0 -141 43.5t-52 95.5q0 43 26.5 69t64.5 26q34 0 61.5 -21.5t43.5 -70.5q7 -20 14.5 -27t16.5 -7q17 0 29.5 19t12.5 88l-3 84q-1 37 -1 146v1012q0 225 6 296t20 110q20 60 58 101.5t89 62.5t112 21
q98 0 150.5 -43t52.5 -98q0 -40 -29.5 -68.5t-69.5 -28.5q-32 0 -59.5 20t-44.5 62q-10 26 -18.5 33.5t-17.5 7.5q-19 0 -31.5 -16.5t-12.5 -62.5l3 -97q2 -102 2 -166z" />
    <glyph glyph-name="ordfeminine" unicode="&#xaa;" horiz-adv-x="715" 
d="M480 1252q-1 64 -34 94.5t-103 30.5q-90 0 -169 -66l-89 86q109 92 274 92q110 0 173 -42t86 -108q14 -40 13 -141v-136q0 -123 4 -183h-145q-2 38 -3 83q-71 -98 -210 -98q-107 0 -166 53t-59 131q0 71 50.5 121t157.5 69q74 14 220 14zM481 1151q-116 -2 -160 -9
q-62 -9 -87.5 -34t-25.5 -55q0 -32 29.5 -56t84.5 -24q79 0 119 41.5t40 136.5z" />
    <glyph glyph-name="ordmasculine" unicode="&#xba;" horiz-adv-x="813" 
d="M756 1158q0 -60 -35 -131t-116.5 -117.5t-202.5 -46.5q-158 0 -250.5 88.5t-92.5 225.5q0 132 96 222t254 90q114 0 196.5 -47t124.5 -138q26 -58 26 -146zM594 1169q0 89 -50.5 139.5t-134.5 50.5q-83 0 -135 -51.5t-52 -133.5q0 -81 50.5 -132.5t131.5 -51.5
q84 0 137 51t53 128z" />
    <glyph glyph-name="Omega" unicode="&#x2126;" horiz-adv-x="1547" 
d="M1427 177v-177h-551v393q95 19 157 64q83 59 129.5 158.5t46.5 217.5q0 130 -57.5 237t-161 165.5t-226.5 58.5q-124 0 -229.5 -59t-163.5 -165.5t-58 -238.5q0 -110 41 -207t114.5 -152.5t176.5 -78.5v-393h-550v177h380v117q-181 55 -280.5 203.5t-99.5 346.5
q0 172 81.5 318t238.5 235.5t346 89.5q192 0 346.5 -87.5t237 -229t82.5 -320.5q0 -130 -45 -248q-31 -83 -84 -146.5t-113 -101.5t-139 -60v-117h381z" />
    <glyph glyph-name="ae" unicode="&#xe6;" horiz-adv-x="1745" 
d="M1465 286l184 -124q-78 -98 -180 -146.5t-249 -48.5q-144 0 -242.5 50.5t-150.5 134.5q-48 -80 -141 -131.5t-239 -51.5q-185 0 -281 88t-96 222q0 100 61.5 179.5t192.5 116.5q100 28 302 28h118q-7 89 -25 125q-23 47 -74.5 77t-122.5 30q-61 0 -117.5 -23t-137.5 -86
l-140 139q88 78 197 115t216 37q117 0 203 -40.5t134 -103.5q52 64 134.5 101t193.5 37q205 0 335 -137.5t130 -381.5q0 -28 -2 -70h-709q9 -122 83.5 -194t187.5 -72q67 0 124.5 30.5t110.5 99.5zM1432 593q-6 72 -25 112q-27 57 -81 91t-129 34q-102 0 -168.5 -65.5
t-70.5 -171.5h474zM749 437h-148q-51 0 -113.5 -8.5t-99 -27t-57 -50t-20.5 -67.5q0 -55 48 -96.5t134 -41.5q118 0 189 76t67 215z" />
    <glyph glyph-name="oslash" unicode="&#xf8;" horiz-adv-x="1249" 
d="M1186 970l-136 -137q115 -135 115 -336q0 -122 -40.5 -217t-108 -159.5t-140.5 -98.5q-107 -51 -259 -51q-191 0 -321 96l-139 -139l-85 82l136 137q-60 80 -89 162t-29 182q0 229 151 377.5t391 148.5q107 0 194.5 -29.5t136.5 -74.5l138 139zM802 749
q-49 31 -88.5 43.5t-86.5 12.5q-127 0 -212 -87.5t-85 -225.5q0 -110 45 -176zM458 231q42 -28 80 -40t86 -12q128 0 214.5 88t86.5 227q0 88 -41 169z" />
    <glyph glyph-name="questiondown" unicode="&#xbf;" horiz-adv-x="1063" 
d="M507 671q-68 0 -116 48t-48 116q0 67 48 115t116 48t115.5 -47.5t47.5 -115.5t-47.5 -116t-115.5 -48zM383 551h247v-138q0 -46 -10 -78t-37 -69q-19 -26 -71 -76q-149 -141 -175 -184.5t-26 -100.5q0 -77 51 -127.5t131 -50.5q45 0 83.5 17t64 44.5t39 58.5t21.5 83
l262 -22q-13 -116 -76.5 -214t-168 -147.5t-237.5 -49.5q-194 0 -310.5 111.5t-116.5 282.5q0 76 22.5 135t62.5 106.5t137 138.5q57 53 76 80t25 52t6 88v60z" />
    <glyph glyph-name="exclamdown" unicode="&#xa1;" horiz-adv-x="606" 
d="M304 671q-69 0 -116.5 48t-47.5 116q0 67 48 115t116 48q67 0 115 -47.5t48 -115.5t-47.5 -116t-115.5 -48zM180 -470v1006h248v-1006h-248z" />
    <glyph glyph-name="logicalnot" unicode="&#xac;" horiz-adv-x="1364" 
d="M153 650v195h1059v-636h-199v441h-860z" />
    <glyph glyph-name="radical" unicode="&#x221a;" horiz-adv-x="1077" 
d="M1101 1609l-432 -2048h-197l-318 661l-101 -48l-76 163l279 129l280 -590l354 1733h211z" />
    <glyph glyph-name="florin" unicode="&#x192;" horiz-adv-x="1212" 
d="M984 882v-178h-286l-122 -623q-11 -52 -33 -119q-23 -68 -74 -125.5t-121.5 -88t-154.5 -30.5q-106 0 -207 48l92 188q46 -26 100 -26q45 0 76.5 22t47.5 62q23 56 33 107l113 585h-232v178h269l45 226q36 180 112 265q100 112 263 112q63 0 118 -14t119 -46l-94 -191
q-57 31 -110 31q-61 0 -103 -39.5t-63 -141.5l-40 -202h252z" />
    <glyph glyph-name="approxequal" unicode="&#x2248;" horiz-adv-x="1364" 
d="M1231 898q-19 -172 -98 -253t-193 -81q-42 0 -88 11q-102 24 -296 93q-74 27 -100 33t-48 6q-48 0 -87.5 -38t-50.5 -108h-133q11 99 39 161q39 87 103 131t146 44q25 0 46 -3t50 -10t70 -20l163 -54q114 -37 147 -44q34 -7 63 -7q50 0 86 34t49 105h132zM1228 491
q-18 -171 -97.5 -252t-194.5 -81q-41 0 -87 11q-101 23 -296 93q-74 26 -100 32t-49 6q-47 0 -86.5 -38t-50.5 -107h-133q10 98 39 160q39 87 103 131.5t146 44.5q39 0 76 -8q38 -9 151 -46q193 -64 236 -74q43 -11 75 -11q51 0 87 34.5t49 104.5h132z" />
    <glyph glyph-name="Delta" unicode="&#x2206;" horiz-adv-x="1396" 
d="M794 1455l582 -1455h-1356l558 1455h216zM301 191h783l-400 1031z" />
    <glyph glyph-name="guillemotleft" unicode="&#xab;" horiz-adv-x="1063" 
d="M975 849l-237 -356l237 -356l-156 -103l-309 459l309 459zM532 849l-236 -356l236 -356l-155 -103l-310 459l310 459z" />
    <glyph glyph-name="guillemotright" unicode="&#xbb;" horiz-adv-x="1063" 
d="M529 849l156 103l309 -459l-309 -459l-156 103l237 356zM86 849l156 103l309 -459l-309 -459l-156 103l237 356z" />
    <glyph glyph-name="ellipsis" unicode="&#x2026;" horiz-adv-x="2048" 
d="M340 268q61 0 103.5 -42.5t42.5 -103.5q0 -60 -42.5 -102.5t-103.5 -42.5q-60 0 -102.5 42.5t-42.5 102.5q0 61 42.5 103.5t102.5 42.5zM1024 268q61 0 103 -42.5t42 -103.5q0 -60 -42.5 -102.5t-102.5 -42.5q-61 0 -103.5 42.5t-42.5 102.5q0 61 42.5 103.5t103.5 42.5z
M1707 268q61 0 103 -42.5t42 -103.5q0 -60 -42.5 -102.5t-102.5 -42.5t-102.5 42.5t-42.5 102.5q0 61 42 103.5t103 42.5z" />
    <glyph glyph-name="nonbreakingspace" unicode="&#xa0;" horiz-adv-x="1212" 
 />
    <glyph glyph-name="Agrave" unicode="&#xc0;" horiz-adv-x="1479" 
d="M420 332l-132 -332h-287l632 1455h220l625 -1455h-295l-135 332h-628zM507 555h451l-157 392q-37 93 -68 198q-31 -109 -70 -205zM352 1843h338l202 -294h-210z" />
    <glyph glyph-name="Atilde" unicode="&#xc3;" horiz-adv-x="1479" 
d="M420 332l-132 -332h-287l632 1455h220l625 -1455h-295l-135 332h-628zM507 555h451l-157 392q-37 93 -68 198q-31 -109 -70 -205zM1116 1824q-24 -134 -83 -191.5t-143 -57.5q-36 0 -75.5 9.5t-129.5 42.5q-47 17 -60 20q-19 4 -33 4q-31 0 -54.5 -19.5t-39.5 -68.5h-137
q22 130 88.5 194.5t154.5 64.5q32 0 75 -11q32 -9 100 -39q52 -23 66 -27q21 -6 41 -6q32 0 55 18.5t40 66.5h135z" />
    <glyph glyph-name="Otilde" unicode="&#xd5;" horiz-adv-x="1706" 
d="M1627 714q0 -174 -75 -330q-95 -201 -269 -311t-420 -110q-403 0 -614 270q-165 211 -165 491q0 201 87 371q68 132 175.5 222t231.5 131t280 41q189 0 325.5 -59t233.5 -161t153.5 -239t56.5 -316zM1357 718q0 153 -65 276.5t-186 189t-255 65.5q-132 0 -250 -66
t-182.5 -184t-64.5 -268q0 -154 63 -273.5t176 -187t258 -67.5q218 0 362 146t144 369zM1234 1825q-24 -134 -83 -191.5t-143 -57.5q-36 0 -75.5 9.5t-129.5 42.5q-47 17 -60 20q-19 4 -33 4q-31 0 -54.5 -19.5t-39.5 -68.5h-137q22 130 88.5 194.5t154.5 64.5q32 0 75 -11
q32 -9 100 -39q52 -23 66 -27q21 -6 41 -6q32 0 55 18.5t40 66.5h135z" />
    <glyph glyph-name="OE" unicode="&#x152;" horiz-adv-x="2048" 
d="M1316 1221v-356h554v-233h-554v-398h623v-234h-988q-278 0 -459.5 86.5t-286 262t-104.5 377.5q0 170 71 321.5t197 245.5t259 128q134 34 320 34h965v-234h-597zM1057 1221q-61 2 -93 2q-200 0 -321.5 -55.5t-194.5 -172.5t-73 -270q0 -99 32 -180t83 -137t116 -94
t155 -57t296 -19v983z" />
    <glyph glyph-name="oe" unicode="&#x153;" horiz-adv-x="1896" 
d="M1618 300l186 -125q-77 -104 -182 -155t-259 -51q-136 0 -243 53q-73 36 -136 113q-70 -86 -165 -126t-224 -40q-269 0 -411 179q-111 141 -111 347q0 230 147.5 375.5t381.5 145.5q133 0 238 -52q77 -38 144 -115q127 165 361 165q218 0 351 -136.5t133 -368.5
q0 -28 -3 -94h-723q7 -118 79.5 -185.5t188.5 -67.5q80 0 143 38.5t104 99.5zM1581 590q-7 73 -31 119q-31 59 -86 90.5t-121 31.5q-97 0 -166.5 -67.5t-75.5 -173.5h480zM879 507q0 134 -78.5 216t-197.5 82q-122 0 -202.5 -84.5t-80.5 -229.5q0 -147 80.5 -232.5
t200.5 -85.5t199 88t79 246z" />
    <glyph glyph-name="endash" unicode="&#x2013;" horiz-adv-x="1024" 
d="M1024 604v-203h-1024v203h1024z" />
    <glyph glyph-name="emdash" unicode="&#x2014;" horiz-adv-x="2048" 
d="M1783 604v-203h-1517v203h1517z" />
    <glyph glyph-name="quotedblleft" unicode="&#x201c;" horiz-adv-x="1063" 
d="M538 962l177 537h219l-147 -537h-249zM111 962l177 537h219l-147 -537h-249z" />
    <glyph glyph-name="quotedblright" unicode="&#x201d;" horiz-adv-x="1063" 
d="M936 1499l-177 -537h-219l147 537h249zM509 1499l-177 -537h-219l147 537h249z" />
    <glyph glyph-name="quoteleft" unicode="&#x2018;" horiz-adv-x="606" 
d="M113 962l177 537h219l-147 -537h-249z" />
    <glyph glyph-name="quoteright" unicode="&#x2019;" horiz-adv-x="606" 
d="M512 1499l-177 -537h-219l147 537h249z" />
    <glyph glyph-name="divide" unicode="&#xf7;" horiz-adv-x="1364" 
d="M682 1052q61 0 103.5 -42.5t42.5 -102.5t-42.5 -102.5t-103.5 -42.5q-60 0 -102.5 42.5t-42.5 102.5t42.5 102.5t102.5 42.5zM153 429v195h1059v-195h-1059zM682 292q61 0 103.5 -42t42.5 -103q0 -60 -42.5 -102.5t-103.5 -42.5q-60 0 -102.5 42.5t-42.5 102.5
t42.5 102.5t102.5 42.5z" />
    <glyph glyph-name="lozenge" unicode="&#x25ca;" horiz-adv-x="1214" 
d="M699 1528l360 -801l-360 -800h-187l-357 800l357 801h187zM606 1331l-250 -604l250 -606l252 606z" />
    <glyph glyph-name="ydieresis" unicode="&#xff;" horiz-adv-x="1063" 
d="M281 985l209 -519q39 -97 67 -192q21 90 61 199l187 512h256l-465 -1193q-43 -112 -84.5 -165.5t-114 -88.5t-167.5 -35q-106 0 -197 30l31 210q66 -25 125 -25q71 0 113.5 29.5t71.5 103.5l56 141l-420 993h271zM321 1469q64 0 108.5 -45t44.5 -108q0 -64 -45 -108.5
t-108 -44.5q-64 0 -108.5 44.5t-44.5 108.5q0 63 44.5 108t108.5 45zM780 1469q63 0 107.5 -45t44.5 -108q0 -64 -44.5 -108.5t-107.5 -44.5q-64 0 -108.5 44.5t-44.5 108.5q0 63 44.5 108t108.5 45z" />
    <glyph glyph-name="Ydieresis" unicode="&#x178;" horiz-adv-x="1290" 
d="M780 621v-621h-262v621l-542 834h322l272 -446l45 -73q16 -28 43 -80q39 82 79 146l280 453h308zM436 1848q64 0 108.5 -45t44.5 -108q0 -64 -45 -108.5t-108 -44.5q-64 0 -108.5 44.5t-44.5 108.5q0 63 44.5 108t108.5 45zM895 1848q63 0 107.5 -45t44.5 -108
q0 -64 -44.5 -108.5t-107.5 -44.5q-64 0 -108.5 44.5t-44.5 108.5q0 63 44.5 108t108.5 45z" />
    <glyph glyph-name="fraction" unicode="&#x2215;" horiz-adv-x="342" 
d="M677 1448l-875 -1515l-136 78l875 1515z" />
    <glyph glyph-name="currency" unicode="&#xa4;" horiz-adv-x="1212" 
d="M106 346l135 135q-76 117 -76 246q0 131 76 247l-135 135l119 119l135 -135q60 37 109 53q69 22 137 22q67 0 126 -19t122 -57l133 136l119 -119l-135 -136q37 -51 56.5 -116.5t19.5 -130.5q0 -128 -76 -244l135 -136l-119 -119l-135 135q-115 -75 -244 -75
q-63 0 -127.5 18.5t-119.5 56.5l-136 -135zM606 989q-66 0 -128.5 -34t-97.5 -97t-35 -131q0 -108 76.5 -184.5t184.5 -76.5q109 0 185.5 76.5t76.5 184.5q0 68 -35 131t-98 97t-129 34z" />
    <glyph glyph-name="guilsinglleft" unicode="&#x2039;" horiz-adv-x="606" 
d="M526 849l-236 -356l236 -356l-155 -103l-310 459l310 459z" />
    <glyph glyph-name="guilsinglright" unicode="&#x203a;" horiz-adv-x="606" 
d="M80 849l156 103l309 -459l-309 -459l-156 103l237 356z" />
    <glyph glyph-name="fi" unicode="&#xfb01;" horiz-adv-x="1214" 
d="M676 985v-205h-227v-780h-243v780h-203v205h203v162q0 152 30.5 235t115 133.5t222.5 50.5q80 0 151 -18l-17 -208q-61 18 -101 18q-89 0 -128 -55q-30 -41 -30 -154v-164h227zM961 1475q63 0 107.5 -45t44.5 -108q0 -64 -44.5 -108.5t-107.5 -44.5q-64 0 -108.5 44.5
t-44.5 108.5q0 63 44.5 108t108.5 45zM1083 985v-985h-246v985h246z" />
    <glyph glyph-name="fl" unicode="&#xfb02;" horiz-adv-x="1214" 
d="M676 985v-205h-227v-780h-243v780h-203v205h203v162q0 152 30.5 235t115 133.5t222.5 50.5q80 0 151 -18l-17 -208q-61 18 -101 18q-89 0 -128 -55q-30 -41 -30 -154v-164h227zM1085 1550v-1550h-247v1550h247z" />
    <glyph glyph-name="daggerdbl" unicode="&#x2021;" horiz-adv-x="1214" 
d="M722 1455v-380h395v-200h-395v-556h392v-201h-392v-380h-227v380h-396v201h396v556h-394v200h394v380h227z" />
    <glyph glyph-name="periodcentered" unicode="&#x2219;" horiz-adv-x="606" 
d="M304 728q68 0 115.5 -48t47.5 -115q0 -68 -48 -116t-115 -48q-68 0 -116 48t-48 116t47.5 115.5t116.5 47.5z" />
    <glyph glyph-name="quotesinglbase" unicode="&#x201a;" horiz-adv-x="606" 
d="M467 279l-177 -537h-219l147 537h249z" />
    <glyph glyph-name="quotedblbase" unicode="&#x201e;" horiz-adv-x="1063" 
d="M936 279l-177 -537h-219l147 537h249zM506 279l-177 -537h-219l147 537h249z" />
    <glyph glyph-name="perthousand" unicode="&#x2030;" horiz-adv-x="2390" 
d="M1320 1443l-881 -1512l-141 82l881 1512zM433 1489q87 0 170 -44.5t129.5 -128t46.5 -173.5t-45.5 -172t-128 -128t-172.5 -46t-172 46t-128 128t-46 172t46.5 173.5t129.5 128t170 44.5zM433 1309q-69 0 -117.5 -48.5t-48.5 -117.5t48.5 -117.5t117.5 -48.5t117.5 48.5
t48.5 117.5t-48 117.5t-118 48.5zM1176 652q87 0 170 -44.5t129.5 -128t46.5 -173.5q0 -89 -45.5 -171.5t-128 -128.5t-172.5 -46t-172 46t-128 128t-46 172t46.5 173.5t129.5 128t170 44.5zM1176 473q-69 0 -117.5 -49t-48.5 -118t48.5 -117.5t117.5 -48.5t117.5 48.5
t48.5 117.5t-48 118t-118 49zM1952 652q88 0 170.5 -44.5t129.5 -128t47 -173.5q0 -89 -46 -171.5t-128.5 -128.5t-172.5 -46q-89 0 -171.5 46t-128.5 128t-46 172t46.5 173.5t129.5 128t170 44.5zM1952 473q-69 0 -117.5 -49t-48.5 -118t48.5 -117.5t117.5 -48.5t118 48.5
t49 117.5t-48.5 118t-118.5 49z" />
    <glyph glyph-name="Acircumflex" unicode="&#xc2;" horiz-adv-x="1479" 
d="M420 332l-132 -332h-287l632 1455h220l625 -1455h-295l-135 332h-628zM507 555h451l-157 392q-37 93 -68 198q-31 -109 -70 -205zM1118 1549h-232l-142 185l-141 -185h-227l236 299h273z" />
    <glyph glyph-name="Ecircumflex" unicode="&#xca;" horiz-adv-x="1251" 
d="M162 1455h961v-234h-705v-360h658v-233h-658v-394h741v-234h-997v1455zM1024 1549h-232l-142 185l-141 -185h-227l236 299h273z" />
    <glyph glyph-name="Aacute" unicode="&#xc1;" horiz-adv-x="1479" 
d="M420 332l-132 -332h-287l632 1455h220l625 -1455h-295l-135 332h-628zM507 555h451l-157 392q-37 93 -68 198q-31 -109 -70 -205zM1132 1843l-330 -294h-210l203 294h337z" />
    <glyph glyph-name="Edieresis" unicode="&#xcb;" horiz-adv-x="1251" 
d="M162 1455h961v-234h-705v-360h658v-233h-658v-394h741v-234h-997v1455zM421 1848q64 0 108.5 -45t44.5 -108q0 -64 -45 -108.5t-108 -44.5q-64 0 -108.5 44.5t-44.5 108.5q0 63 44.5 108t108.5 45zM880 1848q63 0 107.5 -45t44.5 -108q0 -64 -44.5 -108.5t-107.5 -44.5
q-64 0 -108.5 44.5t-44.5 108.5q0 63 44.5 108t108.5 45z" />
    <glyph glyph-name="Egrave" unicode="&#xc8;" horiz-adv-x="1251" 
d="M162 1455h961v-234h-705v-360h658v-233h-658v-394h741v-234h-997v1455zM258 1843h338l202 -294h-210z" />
    <glyph glyph-name="Iacute" unicode="&#xcd;" horiz-adv-x="569" 
d="M416 1455v-1455h-262v1455h262zM677 1843l-330 -294h-210l203 294h337z" />
    <glyph glyph-name="Icircumflex" unicode="&#xce;" horiz-adv-x="569" 
d="M416 1455v-1455h-262v1455h262zM662 1549h-232l-142 185l-141 -185h-227l236 299h273z" />
    <glyph glyph-name="Idieresis" unicode="&#xcf;" horiz-adv-x="569" 
d="M416 1455v-1455h-262v1455h262zM68 1848q64 0 108.5 -45t44.5 -108q0 -64 -45 -108.5t-108 -44.5q-64 0 -108.5 44.5t-44.5 108.5q0 63 44.5 108t108.5 45zM527 1848q63 0 107.5 -45t44.5 -108q0 -64 -44.5 -108.5t-107.5 -44.5q-64 0 -108.5 44.5t-44.5 108.5
q0 63 44.5 108t108.5 45z" />
    <glyph glyph-name="Igrave" unicode="&#xcc;" horiz-adv-x="569" 
d="M416 1455v-1455h-262v1455h262zM-112 1843h338l202 -294h-210z" />
    <glyph glyph-name="Oacute" unicode="&#xd3;" horiz-adv-x="1706" 
d="M1627 714q0 -174 -75 -330q-95 -201 -269 -311t-420 -110q-403 0 -614 270q-165 211 -165 491q0 201 87 371q68 132 175.5 222t231.5 131t280 41q189 0 325.5 -59t233.5 -161t153.5 -239t56.5 -316zM1357 718q0 153 -65 276.5t-186 189t-255 65.5q-132 0 -250 -66
t-182.5 -184t-64.5 -268q0 -154 63 -273.5t176 -187t258 -67.5q218 0 362 146t144 369zM1225 1844l-330 -294h-210l203 294h337z" />
    <glyph glyph-name="Ocircumflex" unicode="&#xd4;" horiz-adv-x="1706" 
d="M1627 714q0 -174 -75 -330q-95 -201 -269 -311t-420 -110q-403 0 -614 270q-165 211 -165 491q0 201 87 371q68 132 175.5 222t231.5 131t280 41q189 0 325.5 -59t233.5 -161t153.5 -239t56.5 -316zM1357 718q0 153 -65 276.5t-186 189t-255 65.5q-132 0 -250 -66
t-182.5 -184t-64.5 -268q0 -154 63 -273.5t176 -187t258 -67.5q218 0 362 146t144 369zM1235 1550h-232l-142 185l-141 -185h-227l236 299h273z" />
    <glyph glyph-name="frame" horiz-adv-x="1517" 
d="M247 0v1280h1024v-1280h-1024zM279 32h960v1216h-960v-1216z" />
    <glyph glyph-name="Ograve" unicode="&#xd2;" horiz-adv-x="1706" 
d="M1627 714q0 -174 -75 -330q-95 -201 -269 -311t-420 -110q-403 0 -614 270q-165 211 -165 491q0 201 87 371q68 132 175.5 222t231.5 131t280 41q189 0 325.5 -59t233.5 -161t153.5 -239t56.5 -316zM1357 718q0 153 -65 276.5t-186 189t-255 65.5q-132 0 -250 -66
t-182.5 -184t-64.5 -268q0 -154 63 -273.5t176 -187t258 -67.5q218 0 362 146t144 369zM479 1844h338l202 -294h-210z" />
    <glyph glyph-name="Uacute" unicode="&#xda;" horiz-adv-x="1479" 
d="M420 1455v-820q0 -117 9 -165q13 -71 55.5 -133t114 -96.5t149.5 -34.5q76 0 143.5 31.5t111 90t58.5 125.5q12 52 12 174v828h256v-775q0 -150 -9 -216q-14 -118 -59.5 -209t-120.5 -157t-170 -99.5t-231 -33.5q-140 0 -254.5 48t-190 140t-106.5 203t-31 309v790h263z
M1130 1843l-330 -294h-210l203 294h337z" />
    <glyph glyph-name="Ucircumflex" unicode="&#xdb;" horiz-adv-x="1479" 
d="M420 1455v-820q0 -117 9 -165q13 -71 55.5 -133t114 -96.5t149.5 -34.5q76 0 143.5 31.5t111 90t58.5 125.5q12 52 12 174v828h256v-775q0 -150 -9 -216q-14 -118 -59.5 -209t-120.5 -157t-170 -99.5t-231 -33.5q-140 0 -254.5 48t-190 140t-106.5 203t-31 309v790h263z
M1118 1549h-232l-142 185l-141 -185h-227l236 299h273z" />
    <glyph glyph-name="Ugrave" unicode="&#xd9;" horiz-adv-x="1479" 
d="M420 1455v-820q0 -117 9 -165q13 -71 55.5 -133t114 -96.5t149.5 -34.5q76 0 143.5 31.5t111 90t58.5 125.5q12 52 12 174v828h256v-775q0 -150 -9 -216q-14 -118 -59.5 -209t-120.5 -157t-170 -99.5t-231 -33.5q-140 0 -254.5 48t-190 140t-106.5 203t-31 309v790h263z
M376 1843h338l202 -294h-210z" />
    <glyph glyph-name="dotlessi" unicode="&#x131;" 
d="M389 985v-985h-246v985h246z" />
    <glyph glyph-name="circumflex" unicode="&#x2c6;" 
d="M637 1172h-232l-142 185l-141 -185h-227l236 299h273z" />
    <glyph glyph-name="tilde" unicode="&#x2dc;" 
d="M642 1449q-24 -134 -83 -191.5t-143 -57.5q-36 0 -75.5 9.5t-129.5 42.5q-47 17 -60 20q-19 4 -33 4q-31 0 -54.5 -19.5t-39.5 -68.5h-137q22 130 88.5 194.5t154.5 64.5q32 0 75 -11q32 -9 100 -39q52 -23 66 -27q21 -6 41 -6q32 0 55 18.5t40 66.5h135z" />
    <glyph glyph-name="macron" unicode="&#xaf;" 
d="M588 1401v-164h-645v164h645z" />
    <glyph glyph-name="breve" unicode="&#x2d8;" 
d="M482 1465h135q-12 -91 -44 -146q-45 -76 -121 -114t-181 -38q-75 0 -132 15t-97.5 43.5t-68 69.5t-38.5 79t-15 91h137q18 -76 71 -108.5t138 -32.5q103 0 148 31t68 110z" />
    <glyph glyph-name="dotaccent" unicode="&#x2d9;" 
d="M266 1475q64 0 108.5 -45t44.5 -108q0 -64 -45 -108.5t-108 -44.5q-64 0 -108.5 44.5t-44.5 108.5q0 63 44.5 108t108.5 45z" />
    <glyph glyph-name="ring" unicode="&#x2da;" horiz-adv-x="533" 
d="M265 1537q55 0 106.5 -28t80.5 -79.5t29 -107.5q0 -89 -63 -152.5t-153 -63.5q-89 0 -152 63t-63 153q0 56 29 108t80.5 79.5t105.5 27.5zM265 1436q-47 0 -80.5 -33.5t-33.5 -80.5q0 -48 33.5 -81t80.5 -33q48 0 81.5 33t33.5 81q0 47 -33.5 80.5t-81.5 33.5z" />
    <glyph glyph-name="cedilla" unicode="&#xb8;" 
d="M343 0l-86 -124q35 7 63 7q86 0 136.5 -47.5t50.5 -115.5q0 -79 -70.5 -138t-210.5 -59q-59 0 -110.5 12t-111.5 39l45 96q84 -39 168 -39q62 0 89.5 22t27.5 52q0 29 -26.5 51.5t-76.5 22.5q-33 0 -78 -14l-54 51l126 184h118z" />
    <glyph glyph-name="hungarumlaut" unicode="&#x2dd;" 
d="M395 1466l-292 -294h-193l206 294h279zM819 1466l-312 -294h-200l215 294h297z" />
    <glyph glyph-name="ogonek" unicode="&#x2db;" 
d="M410 0h126q-84 -90 -117 -149t-33 -102q0 -42 26.5 -70t63.5 -28q58 0 111 48l51 -99q-100 -80 -207 -80q-96 0 -153 53.5t-57 129.5q0 131 189 297z" />
    <glyph glyph-name="caron" unicode="&#x2c7;" 
d="M-105 1471h233l141 -184l142 184h226l-236 -299h-273z" />
    <glyph glyph-name="Lslash" unicode="&#x141;" horiz-adv-x="1063" 
d="M162 0v397l-145 -127v223l145 128v834h265v-630l413 364v-221l-413 -365v-369h621v-234h-886z" />
    <glyph glyph-name="lslash" unicode="&#x142;" 
d="M389 1550v-559l145 141v-216l-145 -145v-771h-247v554l-139 -137v221l139 136v776h247z" />
    <glyph glyph-name="Scaron" unicode="&#x160;" horiz-adv-x="1175" 
d="M1061 1336l-187 -190q-42 58 -107 86.5t-142 28.5q-120 0 -185 -56t-65 -135q0 -51 27.5 -90.5t86.5 -68.5q45 -21 189 -67.5t201 -79.5q90 -52 142 -136t52 -204q0 -199 -141 -328.5t-399 -129.5q-155 0 -273.5 52.5t-196.5 140.5l194 188q53 -75 129 -113t162 -38
q117 0 185.5 60t68.5 140q0 56 -28 97.5t-77 65.5q-30 14 -171 62t-186 69q-81 39 -130.5 89.5t-77 119t-27.5 148.5q0 169 114 289q147 156 419 156q138 0 240.5 -40.5t182.5 -115.5zM248 1852h233l141 -184l142 184h226l-236 -299h-273z" />
    <glyph glyph-name="scaron" unicode="&#x161;" horiz-adv-x="909" 
d="M820 869l-165 -150q-39 54 -83.5 80t-104.5 26q-66 0 -104 -33t-38 -75q0 -29 16 -51.5t49 -36t122 -31.5q136 -28 203 -62.5t103.5 -96.5t36.5 -140q0 -90 -45 -163t-140 -117.5t-236 -44.5q-140 0 -232.5 42t-158.5 114l163 155q57 -66 110 -94t121 -28q80 0 121 34.5
t41 81.5q0 30 -15.5 53.5t-42.5 37t-87 25.5q-152 30 -223.5 62.5t-112 94t-40.5 145.5q0 135 103.5 226.5t289.5 91.5q127 0 226 -47q70 -33 123 -99zM92 1471h233l141 -184l142 184h226l-236 -299h-273z" />
    <glyph glyph-name="Zcaron" unicode="&#x17d;" horiz-adv-x="1251" 
d="M1183 234v-234h-1114v232l693 896q46 60 89 104q-67 -7 -164 -7h-600v230h1076v-224l-693 -908q-45 -59 -82 -95q49 4 210 6h585zM263 1848h233l141 -184l142 184h226l-236 -299h-273z" />
    <glyph glyph-name="zcaron" unicode="&#x17e;" horiz-adv-x="987" 
d="M900 985v-230l-438 -462q-35 -37 -107 -91h563v-202h-847v233l443 464q35 37 94 85h-514v203h806zM130 1469h233l141 -184l142 184h226l-236 -299h-273z" />
    <glyph glyph-name="brokenbar" unicode="&#xa6;" horiz-adv-x="455" 
d="M125 841v512h206v-512h-206zM125 -183v512h206v-512h-206z" />
    <glyph glyph-name="Eth" unicode="&#xd0;" horiz-adv-x="1554" 
d="M169 671h-135v175h135v609h426q222 0 345 -28q124 -29 224.5 -93.5t170 -159t104 -207t34.5 -237.5q0 -151 -48.5 -274.5t-127.5 -215t-172 -143.5q-62 -35 -144 -57q-157 -40 -333 -40h-479v671zM430 671v-437h172q199 0 311 47q142 58 214 175.5t72 276.5
q0 151 -69.5 264.5t-192.5 168.5t-330 55h-177v-375h441v-175h-441z" />
    <glyph glyph-name="eth" unicode="&#xf0;" horiz-adv-x="1249" 
d="M234 1263l218 103q-63 59 -157 131l204 118q50 -38 175 -151l228 103l131 -113l-240 -110q121 -135 178 -215.5t102.5 -181t66 -191.5t20.5 -190q0 -139 -38 -248.5t-102 -179.5t-142 -108q-110 -53 -250 -53q-238 0 -389 147t-151 368q0 217 149 365t366 148
q83 0 148 -25q44 -17 95 -63q-45 77 -95 139t-177 191l-216 -100zM625 198q74 0 142.5 35.5t107 107t38.5 153.5q0 124 -83 208t-206 84q-79 0 -147 -37t-105 -106.5t-37 -150.5q0 -83 38.5 -153.5t106.5 -105.5t145 -35z" />
    <glyph glyph-name="Yacute" unicode="&#xdd;" horiz-adv-x="1290" 
d="M780 621v-621h-262v621l-542 834h322l272 -446l45 -73q16 -28 43 -80q39 82 79 146l280 453h308zM1062 1843l-330 -294h-210l203 294h337z" />
    <glyph glyph-name="yacute" unicode="&#xfd;" horiz-adv-x="1063" 
d="M281 985l209 -519q39 -97 67 -192q21 90 61 199l187 512h256l-465 -1193q-43 -112 -84.5 -165.5t-114 -88.5t-167.5 -35q-106 0 -197 30l31 210q66 -25 125 -25q71 0 113.5 29.5t71.5 103.5l56 141l-420 993h271zM947 1464l-330 -294h-210l203 294h337z" />
    <glyph glyph-name="Thorn" unicode="&#xde;" horiz-adv-x="1251" 
d="M162 1455h261v-280h209q181 0 274 -30q125 -41 202 -141.5t77 -254.5q0 -138 -69.5 -241.5t-189.5 -148.5q-92 -33 -294 -33h-209v-326h-261v1455zM423 550h181q70 0 96 2q55 6 94 19.5t67.5 39.5t43.5 62t15 77q0 68 -37.5 118t-112.5 71q-52 14 -175 14h-172v-403z" />
    <glyph glyph-name="thorn" unicode="&#xfe;" horiz-adv-x="1290" 
d="M144 -471v2021h246v-693q123 150 326 150q189 0 326 -121q161 -142 161 -391q0 -231 -138 -375.5t-357 -144.5q-107 0 -187.5 41t-130.5 111v-598h-246zM374 492q0 -131 81.5 -213t206.5 -82t206.5 84t81.5 217q0 129 -80.5 211t-205.5 82t-207.5 -83.5t-82.5 -215.5z
" />
    <glyph glyph-name="minus" unicode="&#x2212;" horiz-adv-x="1364" 
d="M153 429v196h1059v-196h-1059z" />
    <glyph glyph-name="multiply" unicode="&#xd7;" horiz-adv-x="1364" 
d="M171 160l367 367l-367 367l144 143l366 -367l367 367l144 -143l-367 -367l367 -367l-144 -143l-367 367l-366 -367z" />
    <glyph glyph-name="onesuperior" unicode="&#xb9;" horiz-adv-x="788" 
d="M544 1479v-873h-165v595q0 66 6 107q-25 -25 -54 -48l-129 -103l-94 101l285 221h151z" />
    <glyph glyph-name="twosuperior" unicode="&#xb2;" horiz-adv-x="788" 
d="M715 742v-136h-637v160l361 323q61 54 82 88q21 35 21 68q0 49 -37.5 83.5t-98.5 34.5q-59 0 -96.5 -31.5t-48.5 -91.5l-170 13q14 115 95 181t225 66q145 0 223.5 -71t78.5 -179q0 -69 -32 -125.5t-124 -139.5l-201 -181q-45 -40 -82 -66q45 4 107 4h334z" />
    <glyph glyph-name="threesuperior" unicode="&#xb3;" horiz-adv-x="788" 
d="M293 993v131q20 -1 32 -1q102 0 142 24q55 32 55 96q0 51 -36 85t-100 34q-54 0 -90 -23.5t-54 -67.5l-169 41q30 87 106.5 136t201.5 49q149 0 226 -68t77 -168q0 -73 -42.5 -126t-124.5 -74q77 -12 119 -48q71 -63 71 -164q0 -111 -84 -186t-242 -75
q-102 0 -169.5 30.5t-108.5 83.5q-25 33 -45 93l171 42q20 -61 56 -87.5t95 -26.5q73 0 116.5 40.5t43.5 97.5q0 59 -46.5 96t-163.5 37q-13 0 -37 -1z" />
    <glyph glyph-name="onehalf" unicode="&#xbd;" horiz-adv-x="1821" 
d="M1414 1448l-875 -1515l-136 78l875 1515zM495 1479v-873h-165v595q0 66 6 107q-25 -25 -54 -48l-129 -103l-94 101l285 221h151zM1796 136v-136h-637v160l361 323q61 54 82 88q21 35 21 68q0 49 -37.5 83.5t-98.5 34.5q-59 0 -96.5 -31.5t-48.5 -91.5l-170 13
q14 115 95 181t225 66q145 0 224 -71t79 -178q0 -70 -32.5 -126.5t-124.5 -139.5l-201 -181q-45 -40 -82 -65q45 3 107 3h334z" />
    <glyph glyph-name="onequarter" unicode="&#xbc;" horiz-adv-x="1821" 
d="M1414 1448l-875 -1515l-136 78l875 1515zM495 1479v-873h-165v595q0 66 6 107q-25 -25 -54 -48l-129 -103l-94 101l285 221h151zM1692 873v-555h130v-132h-130v-186h-163v186h-399v145l377 542h185zM1535 313v233q1 119 2 144q-24 -48 -66 -109l-128 -190
q-33 -48 -60 -78h252z" />
    <glyph glyph-name="threequarters" unicode="&#xbe;" horiz-adv-x="1821" 
d="M1414 1448l-875 -1515l-135 78l875 1515zM244 993v131q20 -1 32 -1q102 0 142 24q55 32 55 96q0 51 -36 85t-100 34q-54 0 -90 -23.5t-54 -67.5l-169 41q30 87 106.5 136t201.5 49q149 0 226 -68t77 -168q0 -73 -42.5 -126t-124.5 -74q77 -12 119 -48q71 -63 71 -164
q0 -111 -84 -186t-242 -75q-102 0 -169.5 30.5t-108.5 83.5q-25 33 -45 93l171 42q20 -61 56 -87.5t95 -26.5q73 0 116.5 40.5t43.5 97.5q0 59 -46.5 96t-163.5 37q-13 0 -37 -1zM1692 873v-555h130v-132h-130v-186h-163v186h-399v145l377 542h185zM1535 313v233
q2 119 3 144q-25 -48 -66 -109l-129 -190q-33 -48 -60 -78h252z" />
    <glyph glyph-name="franc" unicode="&#x20a3;" horiz-adv-x="1214" 
d="M205 1455h940v-234h-680v-384h634v-239h-634v-598h-260v1455z" />
    <glyph glyph-name="Gbreve" unicode="&#x11e;" horiz-adv-x="1593" 
d="M1418 1305l-188 -201q-142 141 -358 141q-141 0 -264 -65t-187.5 -182t-64.5 -265q0 -149 66.5 -271.5t189 -186.5t277.5 -64q79 0 159 17.5t142 47.5v334h-287v234h543v-738q-268 -137 -567 -137q-272 0 -448 111.5t-259.5 287t-83.5 362.5q0 210 98.5 388.5t280 277
t416.5 98.5q180 0 324 -56q109 -43 211 -133zM1086 1853h135q-12 -91 -44 -146q-45 -76 -121 -114t-181 -38q-75 0 -132 15t-97.5 43.5t-68 69.5t-38.5 79t-15 91h137q18 -76 71 -108.5t138 -32.5q103 0 148 31t68 110z" />
    <glyph glyph-name="gbreve" unicode="&#x11f;" horiz-adv-x="1290" 
d="M1142 985v-922q0 -195 -63.5 -315.5t-185 -186.5t-310.5 -66q-146 0 -263 40.5t-219 121.5l148 203q83 -77 162 -112t172 -35q85 0 147.5 26.5t97.5 68t51 90.5t17 122l1 114q-57 -73 -134 -112t-190 -39q-244 0 -384 191q-101 139 -101 322q0 120 39.5 213.5t101 156
t145.5 102.5t192 40q106 0 193.5 -41.5t148.5 -127.5v146h234zM911 496q0 131 -81.5 213.5t-204.5 82.5q-121 0 -203 -82t-82 -208q0 -130 81 -213t206 -83q124 0 204 81t80 209zM863 1469h135q-12 -91 -44 -146q-45 -76 -121 -114t-181 -38q-75 0 -132 15t-97.5 43.5
t-68 69.5t-38.5 79t-15 91h137q18 -76 71 -108.5t138 -32.5q103 0 148 31t68 110z" />
    <glyph glyph-name="Idotaccent" unicode="&#x130;" horiz-adv-x="569" 
d="M416 1455v-1455h-262v1455h262zM285 1884q64 0 108.5 -45t44.5 -108q0 -64 -45 -108.5t-108 -44.5q-64 0 -108.5 44.5t-44.5 108.5q0 63 44.5 108t108.5 45z" />
    <glyph glyph-name="Scedilla" unicode="&#x15e;" horiz-adv-x="1175" 
d="M1061 1336l-187 -190q-42 58 -107 86.5t-142 28.5q-120 0 -185 -56t-65 -135q0 -51 27.5 -90.5t86.5 -68.5q45 -21 189 -67.5t201 -79.5q90 -52 142 -136t52 -204q0 -183 -120.5 -308.5t-336.5 -145.5l-85 -125q34 8 62 8q86 0 136.5 -47.5t50.5 -115.5q0 -54 -32 -99
t-85 -68q-74 -30 -163 -30q-61 0 -112.5 11.5t-110.5 38.5l45 96q86 -40 167 -40q62 0 90 23t28 53q0 29 -26 51t-78 22q-35 0 -78 -13l-52 50l123 182q-98 6 -174 28.5t-151 69.5q-57 37 -108 94l194 188q53 -75 129 -113t162 -38q117 0 185.5 60t68.5 140q0 56 -28 97.5
t-77 65.5q-30 14 -171 62t-186 69q-81 39 -130.5 89.5t-77 119t-27.5 148.5q0 169 114 289q147 156 419 156q138 0 240.5 -40.5t182.5 -115.5z" />
    <glyph glyph-name="scedilla" unicode="&#x15f;" horiz-adv-x="909" 
d="M820 869l-165 -150q-39 54 -83.5 80t-104.5 26q-66 0 -104 -33t-38 -75q0 -29 16 -51.5t49 -36t122 -31.5q136 -28 203 -62.5t103.5 -96.5t36.5 -140q0 -131 -92.5 -220.5t-272.5 -101.5l-81 -116q41 8 66 8q83 0 134 -48t51 -117q0 -78 -71 -137.5t-206 -59.5
q-116 0 -226 51l44 96q88 -39 166 -39q63 0 91 22t28 53q0 29 -26.5 51.5t-76.5 22.5q-32 0 -78 -14l-53 51l120 176q-111 10 -183.5 44t-145.5 109l163 155q57 -66 110 -94t121 -28q80 0 121 34.5t41 81.5q0 30 -15.5 53.5t-42.5 37t-87 25.5q-152 30 -223.5 62.5t-112 94
t-40.5 145.5q0 135 103.5 226.5t289.5 91.5q127 0 226 -47q70 -33 123 -99z" />
    <glyph glyph-name="Cacute" unicode="&#x106;" horiz-adv-x="1403" 
d="M1344 1270l-210 -173q-55 67 -134.5 102.5t-172.5 35.5q-126 0 -239 -65t-176 -186t-63 -269q0 -145 61 -259t175.5 -177t241.5 -63q210 0 328 169l226 -163q-83 -115 -219.5 -184.5t-319.5 -69.5q-255 0 -429 116.5t-262 305.5q-75 159 -75 340q0 214 100.5 389t269 270
t385.5 95q135 0 239.5 -35t177.5 -88q46 -32 96 -91zM1216 1839l-330 -294h-210l203 294h337z" />
    <glyph glyph-name="cacute" unicode="&#x107;" horiz-adv-x="987" 
d="M976 871l-170 -173q-52 54 -101 77t-107 23q-114 0 -191.5 -83.5t-77.5 -224.5q0 -137 80 -221.5t195 -84.5q62 0 110 25t98 85l162 -179q-135 -143 -373 -143q-231 0 -376 143.5t-145 376.5q0 232 148 377.5t382 145.5q115 0 209.5 -39t156.5 -105zM980 1466l-330 -294
h-210l203 294h337z" />
    <glyph glyph-name="Ccaron" unicode="&#x10c;" horiz-adv-x="1403" 
d="M1344 1270l-210 -173q-55 67 -134.5 102.5t-172.5 35.5q-126 0 -239 -65t-176 -186t-63 -269q0 -145 61 -259t175.5 -177t241.5 -63q210 0 328 169l226 -163q-83 -115 -219.5 -184.5t-319.5 -69.5q-255 0 -429 116.5t-262 305.5q-75 159 -75 340q0 214 100.5 389t269 270
t385.5 95q135 0 239.5 -35t177.5 -88q46 -32 96 -91zM459 1844h233l141 -184l142 184h226l-236 -299h-273z" />
    <glyph glyph-name="ccaron" unicode="&#x10d;" horiz-adv-x="987" 
d="M976 871l-170 -173q-52 54 -101 77t-107 23q-114 0 -191.5 -83.5t-77.5 -224.5q0 -137 80 -221.5t195 -84.5q62 0 110 25t98 85l162 -179q-135 -143 -373 -143q-231 0 -376 143.5t-145 376.5q0 232 148 377.5t382 145.5q115 0 209.5 -39t156.5 -105zM224 1471h233
l141 -184l142 184h226l-236 -299h-273z" />
    <glyph glyph-name="dcroat" unicode="&#x111;" horiz-adv-x="1290" 
d="M897 1369v181h246v-181h147v-151h-147v-1218h-237v139q-53 -70 -135 -116t-201 -46q-212 0 -349.5 142t-137.5 372q0 229 140 374.5t346 145.5q114 0 203 -46q67 -34 125 -105v358h-350v151h350zM910 502q0 125 -80 204.5t-207 79.5q-125 0 -206 -83t-81 -219
q0 -127 83 -209.5t208 -82.5q120 0 201.5 85t81.5 225z" />
    </font>
</defs>
</svg>
