<?xml version="1.0" standalone="no"?>
<!DOCTYPE svg PUBLIC "-//W3C//DTD SVG 1.1//EN" "http://www.w3.org/Graphics/SVG/1.1/DTD/svg11.dtd" >
<svg>
<metadata>
Created by FontForge 20120731 at Sat Aug 24 10:15:43 2019
 By www-data
Copyright (c) 1989, 1995 Adobe Systems Incorporated.  All Rights Reserved.Avenir is a trademark of Linotype-Hell AG and/or its subsidiaries.
</metadata>
<defs>
<font id="Avenir-Medium" horiz-adv-x="556" >
  <font-face 
    font-family="Avenir"
    font-weight="500"
    font-stretch="normal"
    units-per-em="1000"
    panose-1="2 0 6 3 4 0 0 2 0 3"
    ascent="800"
    descent="-200"
    x-height="474"
    cap-height="708"
    bbox="-166 -282 1036 924"
    underline-thickness="50"
    underline-position="-75"
    unicode-range="U+0001-2122"
  />
<missing-glyph horiz-adv-x="278" 
 />
    <glyph glyph-name=".notdef" horiz-adv-x="278" 
 />
    <glyph glyph-name=".null" horiz-adv-x="0" 
 />
    <glyph glyph-name="nonmarkingreturn" horiz-adv-x="500" 
 />
    <glyph glyph-name="space" unicode=" " horiz-adv-x="278" 
 />
    <glyph glyph-name="Eth" horiz-adv-x="741" 
d="M75 0h231q95 0 167.5 30t121.5 79.5t74 113t25 131.5q0 33 -7 72t-23 78t-43.5 76t-69 65.5t-98 45.5t-131.5 17h-247v-306h-72v-66h72v-336zM171 336h234v66h-234v216h144q86 0 140 -28.5t84.5 -69.5t41.5 -86.5t11 -79.5q0 -66 -24 -115.5t-65 -82.5t-95.5 -49.5
t-115.5 -16.5h-121v246z" />
    <glyph glyph-name="eth" horiz-adv-x="594" 
d="M423 756l-108 -52l-89 78l-79 -46l85 -71l-106 -53l47 -46l107 52q42 -41 79 -85.5t65 -94.5l-2 -2q-24 28 -58 39t-67 11q-53 0 -99 -19.5t-80 -53t-53.5 -79t-19.5 -97.5t19.5 -97t53.5 -79t80 -53.5t99 -19.5q60 0 106.5 20t79 57t49.5 89t17 115q0 59 -14.5 111
t-40 100t-59 92t-72.5 85l112 55zM141 237q0 36 11 66.5t31 52t49 34t65 12.5t65 -12.5t49 -34t31 -52t11 -66.5t-11 -66.5t-31 -52t-49 -34t-65 -12.5t-65 12.5t-49 34t-31 52t-11 66.5z" />
    <glyph glyph-name="Lslash" horiz-adv-x="519" 
d="M91 0h421v90h-325v202l216 187v89l-216 -188v328h-96v-411l-72 -62v-89l72 63v-209z" />
    <glyph glyph-name="lslash" horiz-adv-x="240" 
d="M75 0h90v388l78 77v90l-78 -77v278h-90v-368l-78 -78v-90l78 78v-298z" />
    <glyph glyph-name="Scaron" 
d="M33 80q36 -50 97 -74t129 -24q51 0 96 15t78 43t52.5 69t19.5 92q0 64 -26 100.5t-64.5 58t-84 33.5t-84 27t-64.5 39t-26 69q0 17 6.5 35.5t22.5 35t42.5 27t66.5 10.5q42 0 75 -17t51 -45l78 71q-40 49 -93 65t-111 16q-64 0 -109.5 -19.5t-74.5 -48.5t-42.5 -64
t-13.5 -66q0 -69 26 -109.5t64.5 -64.5t84 -37.5t84 -28t64.5 -36t26 -62.5q0 -29 -13 -51t-33.5 -37t-45.5 -22.5t-49 -7.5q-43 0 -83.5 18.5t-66.5 57.5zM225 748h106l112 144h-91l-74 -96l-78 96h-87z" />
    <glyph glyph-name="scaron" horiz-adv-x="444" 
d="M390 408q-26 42 -70 60t-92 18q-33 0 -65.5 -9t-58 -27t-41 -45.5t-15.5 -64.5q0 -34 12 -56.5t32 -37.5t46 -24.5t55 -16.5q15 -3 34.5 -7.5t37 -12t30 -20.5t12.5 -33q0 -15 -8.5 -26.5t-22 -19t-31 -11t-34.5 -3.5q-39 0 -66 17t-49 39l-68 -56q35 -48 79.5 -66
t103.5 -18q35 0 69.5 8t61.5 26t44 46.5t17 68.5q0 33 -10.5 56.5t-29 39t-44 25.5t-54.5 17q-15 3 -36 7t-39.5 12t-32 21t-13.5 34q0 26 23.5 39.5t55.5 13.5q34 0 57.5 -13.5t39.5 -33.5zM169 564h106l112 144h-91l-74 -96l-78 96h-87z" />
    <glyph glyph-name="Yacute" horiz-adv-x="612" 
d="M258 0h96v302l268 406h-117l-199 -311l-193 311h-123l268 -406v-302zM240 748h83l149 144h-128z" />
    <glyph glyph-name="yacute" horiz-adv-x="500" 
d="M208 -3l-29 -75q-7 -18 -14 -32t-17.5 -24.5t-25 -16t-35.5 -5.5q-27 0 -54 11l-11 -82q19 -8 39.5 -10.5t40.5 -2.5q37 0 62.5 10t43.5 28t31 43.5t25 56.5l225 576h-97l-134 -370h-2l-141 370h-104zM184 564h83l149 144h-128z" />
    <glyph glyph-name="Thorn" horiz-adv-x="593" 
d="M91 0h96v167h153q68 0 112 18.5t69.5 47t35.5 64t10 68.5t-10 68.5t-35.5 64t-69.5 47t-112 18.5h-153v145h-96v-708zM187 479h126q29 0 56 -4.5t48.5 -16.5t34.5 -34.5t13 -58.5t-13 -58.5t-34.5 -34.5t-48.5 -16.5t-56 -4.5h-126v228z" />
    <glyph glyph-name="thorn" horiz-adv-x="611" 
d="M68 -228h90v296h2q26 -38 71.5 -59t93.5 -21q55 0 99.5 19t76 53t48.5 79.5t17 97.5q0 53 -17 98.5t-48.5 79t-76 52.5t-99.5 19q-51 0 -96 -21.5t-69 -58.5h-2v350h-90v-984zM314 72q-36 0 -65 12.5t-49 34t-31 52t-11 66.5t11 66.5t31 52t49 34t65 12.5t65 -12.5
t49 -34t31 -52t11 -66.5t-11 -66.5t-31 -52t-49 -34t-65 -12.5z" />
    <glyph glyph-name="Zcaron" horiz-adv-x="593" 
d="M32 0h529v90h-407l401 528v90h-511v-90h391l-403 -528v-90zM244 748h106l112 144h-91l-74 -96l-78 96h-87z" />
    <glyph glyph-name="zcaron" horiz-adv-x="463" 
d="M35 0h393v78h-285l271 316v80h-370v-78h260l-269 -315v-81zM179 564h106l112 144h-91l-74 -96l-78 96h-87z" />
    <glyph glyph-name="onehalf" horiz-adv-x="834" 
d="M158 289h72v431h-71l-128 -98l42 -46l85 72v-359zM494 0h309v66h-213l141 121q31 26 51 55t20 69q0 30 -11.5 52.5t-32 37.5t-47.5 22.5t-58 7.5q-62 0 -104.5 -30t-47.5 -89l84 -6q2 27 20.5 43t47.5 16q27 0 46 -15t19 -41q0 -23 -15 -41t-30 -32l-179 -160v-76zM140 0
l60 -32l439 740l-60 32z" />
    <glyph glyph-name="onequarter" horiz-adv-x="834" 
d="M160 289h72v431h-71l-128 -98l42 -46l85 72v-359zM673 0h66v94h62v66h-62v271h-79l-183 -279v-58h196v-94zM667 160h-118l116 187h2v-187zM152 0l60 -32l439 740l-60 32z" />
    <glyph glyph-name="onesuperior" horiz-adv-x="361" 
d="M154 289h72v431h-71l-128 -98l42 -46l85 72v-359z" />
    <glyph glyph-name="threequarters" horiz-adv-x="834" 
d="M139 477h17q18 0 36 -2t33 -9t24 -19.5t9 -33.5q0 -29 -23 -46.5t-54 -17.5q-32 0 -49.5 14t-25.5 39l-83 -20q15 -53 58 -76t100 -23q31 0 59 8t49.5 24t34 39t12.5 53q0 39 -22.5 68.5t-66.5 34.5v2q36 8 57 34.5t21 61.5q0 28 -12 49t-32 35t-46.5 21t-56.5 7
q-51 0 -92 -21.5t-56 -69.5l83 -20q8 22 26.5 33.5t42.5 11.5q29 0 47 -15t18 -39q0 -19 -7.5 -30.5t-20.5 -17.5t-29 -7.5t-33 -1.5h-18v-66zM693 0h66v94h62v66h-62v271h-79l-183 -279v-58h196v-94zM693 160h-118l116 187h2v-187zM192 0l60 -32l439 740l-60 32z" />
    <glyph glyph-name="threesuperior" horiz-adv-x="361" 
d="M140 477h17q18 0 36 -2t33 -9t24 -19.5t9 -33.5q0 -29 -23 -46.5t-54 -17.5q-32 0 -49.5 14t-25.5 39l-83 -20q15 -53 58 -76t100 -23q31 0 59 8t49.5 24t34 39t12.5 53q0 39 -22.5 68.5t-66.5 34.5v2q36 8 57 34.5t21 61.5q0 28 -12 49t-32 35t-46.5 21t-56.5 7
q-51 0 -92 -21.5t-56 -69.5l83 -20q8 22 26.5 33.5t42.5 11.5q29 0 47 -15t18 -39q0 -19 -7.5 -30.5t-20.5 -17.5t-29 -7.5t-33 -1.5h-18v-66z" />
    <glyph glyph-name="twosuperior" horiz-adv-x="361" 
d="M26 289h309v66h-213l141 121q31 26 51 55t20 69q0 30 -11.5 52.5t-32 37.5t-47.5 22.5t-58 7.5q-62 0 -104.5 -30t-47.5 -89l84 -6q2 27 20.5 43t47.5 16q27 0 46 -15t19 -41q0 -23 -15 -41t-30 -32l-179 -160v-76z" />
    <glyph glyph-name="brokenbar" horiz-adv-x="222" 
d="M72 675v-350h78v350h-78zM72 175v-350h78v350h-78z" />
    <glyph glyph-name="minus" horiz-adv-x="666" 
d="M66 342v-78h534v78h-534z" />
    <glyph glyph-name="multiply" horiz-adv-x="666" 
d="M68 92l54 -56l211 212l211 -212l56 55l-212 212l212 212l-54 55l-213 -212l-212 212l-55 -55l212 -212z" />
    <glyph glyph-name="exclam" unicode="!" horiz-adv-x="278" 
d="M185 708h-96v-504h96v504zM73 60q0 -27 19.5 -46.5t46.5 -19.5t46.5 19.5t19.5 46.5t-19.5 46.5t-46.5 19.5t-46.5 -19.5t-19.5 -46.5z" />
    <glyph glyph-name="quotedbl" unicode="&#x22;" horiz-adv-x="519" 
d="M146 462h78v246h-78v-246zM295 462h78v246h-78v-246z" />
    <glyph glyph-name="numbersign" unicode="#" 
d="M92 0h79l28 204h116l-28 -204h79l28 204h106v78h-95l20 144h106v78h-95l28 204h-79l-28 -204h-116l28 204h-79l-28 -204h-106v-78h95l-20 -144h-106v-78h95zM346 426l-20 -144h-116l20 144h116z" />
    <glyph glyph-name="dollar" unicode="$" 
d="M300 792h-54v-72q-40 -3 -77 -18.5t-65 -41t-45 -60t-17 -77.5q0 -48 16.5 -82t45 -58t65.5 -39t77 -26v-246q-42 2 -81 22.5t-62 58.5l-77 -69q41 -53 97.5 -74.5t122.5 -21.5v-72h54v72q44 3 83 18t68.5 41.5t47 63.5t17.5 83q0 51 -17.5 85t-47.5 56.5t-69.5 37
t-83.5 26.5l2 1v236q38 -1 70.5 -17.5t55.5 -45.5l72 70q-38 40 -90.5 58.5t-107.5 18.5v72zM246 414q-21 6 -40.5 15t-34.5 22t-24 30.5t-9 41.5q0 48 30 76.5t78 36.5v-222zM300 304q23 -7 44.5 -16t38 -22t27 -31.5t10.5 -44.5q0 -25 -9.5 -45.5t-26 -35.5t-38 -24.5
t-46.5 -12.5v232z" />
    <glyph glyph-name="percent" unicode="%" horiz-adv-x="852" 
d="M680 709l-60 31l-445 -740l60 -31zM37 549q0 -37 14 -69t38 -56t56 -38t69 -14t69 14t56 38t38 56t14 69t-14 69t-38 56t-56 38t-69 14t-69 -14t-56 -38t-38 -56t-14 -69zM115 549q0 42 28.5 70.5t70.5 28.5t70.5 -28.5t28.5 -70.5t-28.5 -70.5t-70.5 -28.5t-70.5 28.5
t-28.5 70.5zM461 159q0 -37 14 -69t38 -56t56 -38t69 -14t69 14t56 38t38 56t14 69t-14 69t-38 56t-56 38t-69 14t-69 -14t-56 -38t-38 -56t-14 -69zM539 159q0 42 28.5 70.5t70.5 28.5t70.5 -28.5t28.5 -70.5t-28.5 -70.5t-70.5 -28.5t-70.5 28.5t-28.5 70.5z" />
    <glyph glyph-name="ampersand" unicode="&#x26;" horiz-adv-x="722" 
d="M551 165l137 212h-109l-89 -145l-140 146q27 14 53 31.5t47 40t34 50t13 60.5q0 40 -14.5 70t-39.5 50t-58.5 30t-70.5 10q-38 0 -72 -10.5t-60 -31.5t-41.5 -52t-15.5 -72q0 -52 24.5 -90t58.5 -74q-32 -15 -61.5 -35t-51.5 -45t-35 -55.5t-13 -67.5q0 -39 14 -75.5
t42.5 -65.5t72 -46.5t103.5 -17.5q71 0 121.5 29t95.5 83l87 -94h129zM401 560q0 -24 -10.5 -42.5t-26.5 -33.5t-35.5 -27t-37.5 -22q-12 12 -24 25t-22.5 28t-17 31t-6.5 34q0 40 28 61.5t66 21.5t62 -20.5t24 -55.5zM439 156q-14 -16 -30.5 -32.5t-36 -29t-42 -20.5
t-48.5 -8q-25 0 -49 9.5t-43 26.5t-30 39.5t-11 48.5q0 27 10.5 48.5t27.5 38.5t38.5 31t42.5 26z" />
    <glyph glyph-name="quotesingle" unicode="'" horiz-adv-x="278" 
d="M178 708h-78v-246h78v246z" />
    <glyph glyph-name="parenleft" unicode="(" horiz-adv-x="278" 
d="M194 732q-72 -99 -109 -214t-37 -230q0 -124 38.5 -237t107.5 -207l60 40q-64 88 -96 191t-32 213q0 60 8 112t24 100.5t40 95.5t56 98z" />
    <glyph glyph-name="parenright" unicode=")" horiz-adv-x="278" 
d="M84 -156q72 99 109 214t37 230q0 124 -38.5 237t-107.5 207l-60 -40q64 -88 96 -191t32 -213q0 -60 -8 -112t-24 -100.5t-40 -95.5t-56 -98z" />
    <glyph glyph-name="asterisk" unicode="*" horiz-adv-x="464" 
d="M269 708h-72v-147l-141 48l-21 -65l142 -48l-89 -117l55 -41l89 120l91 -122l55 41l-88 119l139 45l-21 67l-139 -47v147z" />
    <glyph glyph-name="plus" unicode="+" horiz-adv-x="666" 
d="M66 264h228v-228h78v228h228v78h-228v228h-78v-228h-228v-78z" />
    <glyph glyph-name="comma" unicode="," horiz-adv-x="278" 
d="M214 114h-97l-69 -246h82z" />
    <glyph glyph-name="hyphen" unicode="-" horiz-adv-x="316" 
d="M281 284h-246v-84h246v84z" />
    <glyph glyph-name="period" unicode="." horiz-adv-x="278" 
d="M139 -6q27 0 46.5 19.5t19.5 46.5t-19.5 46.5t-46.5 19.5t-46.5 -19.5t-19.5 -46.5t19.5 -46.5t46.5 -19.5z" />
    <glyph glyph-name="slash" unicode="/" horiz-adv-x="389" 
d="M389 726l-69 26l-320 -770l70 -26z" />
    <glyph glyph-name="zero" unicode="0" 
d="M34 354q0 -56 10 -120t37 -119t74.5 -91t122.5 -36t122.5 36t74.5 91t37 119t10 120q0 39 -4 81t-14.5 82.5t-28 77.5t-45 64.5t-65 44t-87.5 16.5t-87.5 -16.5t-65 -44t-45 -64.5t-28 -77.5t-14.5 -82.5t-4 -81zM130 354q0 25 1.5 55t7 61.5t15.5 61.5t26.5 53t40.5 37
t57 14q34 0 57.5 -14t40 -37.5t26.5 -53t15.5 -61t7 -61.5t1.5 -55q0 -23 -1.5 -53t-7 -61t-15.5 -61.5t-26.5 -54t-40.5 -38t-57 -14.5t-57 14.5t-40.5 38t-26.5 54t-15.5 61.5t-7 61t-1.5 53z" />
    <glyph glyph-name="one" unicode="1" 
d="M270 0h96v708h-85l-197 -163l56 -67l130 120v-598z" />
    <glyph glyph-name="two" unicode="2" 
d="M46 0h464v84h-356l233 225q24 23 46 47.5t39 51.5t27.5 57t10.5 65q0 49 -17.5 85.5t-48 61t-71 37t-86.5 12.5t-85.5 -11t-70 -34t-51 -57.5t-27.5 -81.5l104 -9q9 51 43 80t86 29q25 0 47.5 -8t39 -22.5t26 -35.5t9.5 -47q0 -22 -6.5 -42t-17.5 -38t-25 -34.5
t-29 -30.5l-284 -282v-102z" />
    <glyph glyph-name="three" unicode="3" 
d="M46 142q24 -80 85.5 -117t142.5 -37q47 0 89.5 13t75 38.5t52 64t19.5 89.5q0 33 -9 62.5t-27 53.5t-44 40t-59 22v2q54 16 87.5 60t33.5 100q0 49 -17.5 85.5t-47.5 60.5t-69 35.5t-83 11.5q-71 0 -128.5 -32.5t-85.5 -100.5l98 -33q16 37 47.5 59.5t70.5 22.5
q51 0 85 -29t34 -86q0 -26 -7.5 -46.5t-28 -35t-55.5 -22t-90 -7.5v-84q34 0 69 -4t64 -17.5t47.5 -40t18.5 -70.5q0 -28 -11 -52t-29.5 -40.5t-43.5 -26t-53 -9.5q-56 0 -84.5 25t-45.5 76z" />
    <glyph glyph-name="four" unicode="4" 
d="M336 0h96v156h100v84h-100v468h-116l-282 -454v-98h302v-156zM336 240h-218l216 354h2v-354z" />
    <glyph glyph-name="five" unicode="5" 
d="M471 708h-380l-8 -373q36 18 77.5 27.5t68.5 9.5q76 0 123.5 -38.5t47.5 -116.5q0 -34 -11 -60.5t-29.5 -45.5t-43.5 -29t-54 -10q-48 0 -80 21.5t-51 70.5l-97 -33q25 -69 83 -106t130 -37q52 0 97.5 16.5t79 47.5t53 74t19.5 96q0 52 -15.5 95t-44.5 74t-69.5 48
t-90.5 17q-9 0 -22 -1t-26.5 -3t-26 -5t-20.5 -6l3 177h287v90z" />
    <glyph glyph-name="six" unicode="6" 
d="M398 708h-113l-179 -283q-16 -25 -29 -49t-22.5 -48.5t-14.5 -51.5t-5 -60q0 -52 19.5 -94t52.5 -72t77 -46t94 -16t94 15.5t77 45.5t52.5 74.5t19.5 102.5t-20 100.5t-51.5 70t-70.5 40.5t-77 13q-45 0 -78 -16h-4zM131 219q0 32 10.5 59t30 46.5t46.5 30.5t60 11
t60 -11t46.5 -30.5t30 -46.5t10.5 -59t-10.5 -59t-30 -46.5t-46.5 -30.5t-60 -11t-60 11t-46.5 30.5t-30 46.5t-10.5 59z" />
    <glyph glyph-name="seven" unicode="7" 
d="M97 0h108l282 626v82h-445v-84h342z" />
    <glyph glyph-name="eight" unicode="8" 
d="M278 -12q48 0 90.5 15t73.5 42.5t49 67.5t18 90q0 33 -10.5 61t-28.5 50.5t-42.5 38t-53.5 23.5v3q20 5 40 18t35.5 33t25.5 48.5t10 65.5q0 40 -16.5 72.5t-45 55.5t-66 35.5t-79.5 12.5t-79.5 -12.5t-66 -35.5t-45 -55.5t-16.5 -72.5q0 -37 10 -65.5t25.5 -48.5
t35.5 -33t40 -18v-3q-29 -8 -53.5 -23.5t-42.5 -38t-28.5 -50.5t-10.5 -61q0 -50 18 -90t49 -67.5t73.5 -42.5t90.5 -15zM167 530q0 50 32.5 81t78.5 31q50 0 80.5 -31.5t30.5 -80.5q0 -22 -7 -42t-21 -35.5t-34.5 -25t-48.5 -9.5q-27 0 -47.5 10t-34.5 25.5t-21.5 35.5
t-7.5 41zM278 72q-27 0 -51.5 9t-43 25.5t-29.5 41t-11 55.5q0 57 38 93.5t97 37.5q28 0 52.5 -8.5t43 -25t29 -41t10.5 -56.5q0 -58 -37.5 -94.5t-97.5 -36.5z" />
    <glyph glyph-name="nine" unicode="9" 
d="M158 0h113l179 283q16 26 29 49.5t22.5 48t14.5 51.5t5 60q0 52 -19.5 94t-52.5 72t-77 46t-94 16t-94 -15t-77 -45t-52.5 -74.5t-19.5 -103.5q0 -58 20 -100.5t51.5 -70t70.5 -40.5t77 -13q45 0 78 16h4zM425 489q0 -32 -10.5 -59t-30 -46.5t-46.5 -30.5t-60 -11t-60 11
t-46.5 30.5t-30 46.5t-10.5 59t10.5 59t30 46.5t46.5 30.5t60 11t60 -11t46.5 -30.5t30 -46.5t10.5 -59z" />
    <glyph glyph-name="colon" unicode=":" horiz-adv-x="278" 
d="M139 348q27 0 46.5 19.5t19.5 46.5t-19.5 46.5t-46.5 19.5t-46.5 -19.5t-19.5 -46.5t19.5 -46.5t46.5 -19.5zM73 60q0 -27 19.5 -46.5t46.5 -19.5t46.5 19.5t19.5 46.5t-19.5 46.5t-46.5 19.5t-46.5 -19.5t-19.5 -46.5z" />
    <glyph glyph-name="semicolon" unicode=";" horiz-adv-x="278" 
d="M214 114h-97l-69 -246h82zM73 413q0 -27 19.5 -46.5t46.5 -19.5t46.5 19.5t19.5 46.5t-19.5 46.5t-46.5 19.5t-46.5 -19.5t-19.5 -46.5z" />
    <glyph glyph-name="less" unicode="&#x3c;" horiz-adv-x="666" 
d="M600 121l-452 182l452 182v79l-534 -220v-82l534 -219v78z" />
    <glyph glyph-name="equal" unicode="=" horiz-adv-x="666" 
d="M66 420v-78h534v78h-534zM66 263v-78h534v78h-534z" />
    <glyph glyph-name="greater" unicode="&#x3e;" horiz-adv-x="666" 
d="M66 485l452 -182l-452 -182v-79l534 220v82l-534 219v-78z" />
    <glyph glyph-name="question" unicode="?" horiz-adv-x="500" 
d="M306 198v44q0 21 2 34.5t8 25t15.5 22.5t24.5 26l70 71q20 20 31 51t11 69q0 44 -15.5 78.5t-42.5 58t-63.5 36t-78.5 12.5q-88 0 -147.5 -49.5t-72.5 -136.5l102 -10q6 50 36.5 81t79.5 31q22 0 41.5 -8t33.5 -22t22.5 -33.5t8.5 -42.5q0 -22 -8.5 -41t-21.5 -35.5
t-29 -32t-32 -30.5q-19 -19 -33 -32.5t-22 -28t-12 -32.5t-4 -45v-61h96zM191 60q0 -27 19.5 -46.5t46.5 -19.5t46.5 19.5t19.5 46.5t-19.5 46.5t-46.5 19.5t-46.5 -19.5t-19.5 -46.5z" />
    <glyph glyph-name="at" unicode="@" horiz-adv-x="800" 
d="M422 485q32 0 47.5 -26.5t15.5 -61.5q0 -28 -10 -60t-28 -58t-43.5 -43.5t-55.5 -17.5q-38 0 -54.5 21.5t-16.5 58.5q0 36 9.5 69.5t28 60t45.5 42t62 15.5zM615 544h-73l-16 -57h-2q-14 41 -43 58.5t-64 17.5q-51 0 -92.5 -23t-70.5 -60.5t-45 -85.5t-16 -97
q0 -33 9.5 -61.5t27 -49.5t43 -33.5t57.5 -12.5q37 0 69 20t55 44h4q1 -31 19 -47.5t44 -16.5q35 0 76.5 20t76.5 57t58.5 89t23.5 116q0 66 -27 122t-73.5 96.5t-108.5 63t-132 22.5q-76 0 -143.5 -29t-118 -79t-80 -117.5t-29.5 -144.5q0 -78 29 -146.5t79.5 -119
t119 -79.5t147.5 -29q48 0 95 12t89 33.5t75.5 52.5t54.5 69h-79q-36 -49 -98.5 -75t-134.5 -26q-63 0 -117.5 22.5t-95 63t-63.5 96.5t-23 122q0 65 22 121t61 97.5t93 65.5t118 24q53 0 100.5 -16.5t83.5 -48t57 -77t21 -104.5q0 -40 -11.5 -75.5t-29 -62.5t-39.5 -42.5
t-43 -15.5q-29 0 -29 24q0 8 5 25z" />
    <glyph glyph-name="A" unicode="A" horiz-adv-x="704" 
d="M1 0h112l70 175h337l71 -175h112l-303 708h-87zM217 259l134 325h2l132 -325h-268z" />
    <glyph glyph-name="B" unicode="B" horiz-adv-x="630" 
d="M91 0h243q52 0 97.5 13t79 38t53 61.5t19.5 84.5q0 36 -12 67t-32.5 54.5t-48.5 38t-60 16.5v2q54 18 88 56.5t34 99.5q0 45 -16.5 78.5t-45 55t-68 32.5t-85.5 11h-246v-708zM187 624h151q58 0 85 -31t27 -73q0 -29 -10.5 -49t-28.5 -33t-42 -18.5t-51 -5.5h-131v210z
M187 330h142q70 0 111 -31.5t41 -94.5q0 -37 -15.5 -60.5t-39 -37t-50 -18t-48.5 -4.5h-141v246z" />
    <glyph glyph-name="C" unicode="C" horiz-adv-x="704" 
d="M664 616q-43 56 -110.5 83t-137.5 27q-82 0 -149.5 -28t-116.5 -78.5t-76 -119.5t-27 -152q0 -67 25 -132.5t72.5 -117.5t115 -84t151.5 -32q61 0 107.5 15.5t79.5 36t53 41t28 31.5l-81 61q-32 -45 -78 -70t-107 -25q-62 0 -111 22t-83 60t-52 88t-18 106q0 60 19 112.5
t53.5 91.5t83 61.5t108.5 22.5q49 0 95 -21t76 -60z" />
    <glyph glyph-name="D" unicode="D" horiz-adv-x="741" 
d="M75 0h231q95 0 167.5 30t121.5 79.5t74 113t25 131.5q0 33 -7 72t-23 78t-43.5 76t-69 65.5t-98 45.5t-131.5 17h-247v-708zM171 618h144q86 0 140 -28.5t84.5 -69.5t41.5 -86.5t11 -79.5q0 -66 -24 -115.5t-65 -82.5t-95.5 -49.5t-115.5 -16.5h-121v528z" />
    <glyph glyph-name="E" unicode="E" horiz-adv-x="611" 
d="M91 0h475v90h-379v227h336v90h-336v211h361v90h-457v-708z" />
    <glyph glyph-name="F" unicode="F" horiz-adv-x="574" 
d="M91 0h96v306h325v90h-325v222h349v90h-445v-708z" />
    <glyph glyph-name="G" unicode="G" horiz-adv-x="778" 
d="M441 396v-90h157v-197q-32 -18 -77.5 -27.5t-96.5 -9.5q-58 0 -108.5 21.5t-87.5 59.5t-58 89.5t-21 111.5q0 58 19 109.5t54 89.5t84 60.5t110 22.5q54 0 103 -16.5t93 -58.5l68 73q-42 43 -104 67.5t-160 24.5q-81 0 -149 -28.5t-116.5 -78.5t-76 -118t-27.5 -147
q0 -75 25.5 -142.5t74 -118.5t119 -81t160.5 -30q32 0 68.5 4t72 12.5t68.5 20.5t59 28v349h-253z" />
    <glyph glyph-name="H" unicode="H" horiz-adv-x="741" 
d="M91 0h96v324h367v-324h96v708h-96v-294h-367v294h-96v-708z" />
    <glyph glyph-name="I" unicode="I" horiz-adv-x="278" 
d="M91 0h96v708h-96v-708z" />
    <glyph glyph-name="J" unicode="J" horiz-adv-x="482" 
d="M312 233q0 -30 -4 -59t-16 -51.5t-33.5 -36.5t-57.5 -14q-40 0 -65 23t-33 63l-94 -21q14 -78 65.5 -116.5t126.5 -38.5q30 0 66 9.5t67.5 34t52.5 67t21 109.5v506h-96v-475z" />
    <glyph glyph-name="K" unicode="K" horiz-adv-x="648" 
d="M91 0h96v354h8l330 -354h140l-365 381l342 327h-134l-313 -306h-8v306h-96v-708z" />
    <glyph glyph-name="L" unicode="L" horiz-adv-x="519" 
d="M91 0h421v90h-325v618h-96v-708z" />
    <glyph glyph-name="M" unicode="M" horiz-adv-x="906" 
d="M84 0h96v582h2l239 -582h64l239 582h2v-582h96v708h-143l-223 -536h-4l-225 536h-143v-708z" />
    <glyph glyph-name="N" unicode="N" horiz-adv-x="796" 
d="M91 0h96v582h2l394 -582h122v708h-96v-582h-2l-390 582h-126v-708z" />
    <glyph glyph-name="O" unicode="O" horiz-adv-x="832" 
d="M416 -18q81 0 149 28.5t116.5 78.5t76 118t27.5 147t-27.5 147t-76 118t-116.5 78.5t-149 28.5t-149 -28.5t-116.5 -78.5t-76 -118t-27.5 -147t27.5 -147t76 -118t116.5 -78.5t149 -28.5zM416 72q-61 0 -110 22.5t-84 60.5t-54 89.5t-19 109.5t19 109.5t54 89.5t84 60.5
t110 22.5t110 -22.5t84 -60.5t54 -89.5t19 -109.5t-19 -109.5t-54 -89.5t-84 -60.5t-110 -22.5z" />
    <glyph glyph-name="P" unicode="P" horiz-adv-x="593" 
d="M91 0h96v312h153q68 0 112 18.5t69.5 47t35.5 64t10 68.5t-10 68.5t-35.5 64t-69.5 47t-112 18.5h-249v-708zM187 624h126q29 0 56 -4.5t48.5 -16.5t34.5 -34.5t13 -58.5t-13 -58.5t-34.5 -34.5t-48.5 -16.5t-56 -4.5h-126v228z" />
    <glyph glyph-name="Q" unicode="Q" horiz-adv-x="832" 
d="M822 84h-210v2q39 18 69.5 48t51 68t31 81.5t10.5 88.5q0 76 -28.5 140.5t-77.5 112t-114.5 74.5t-140.5 27q-78 0 -144.5 -27.5t-116 -76.5t-77.5 -115.5t-28 -144.5q0 -79 29 -145.5t79 -114.5t117 -75t142 -27h408v84zM410 90q-58 0 -106 22t-82.5 60t-53.5 89
t-19 109q0 55 20 103.5t55 84.5t83 57t103 21q57 0 105 -21t83 -57t54.5 -85t19.5 -105q0 -58 -19 -109t-53.5 -88.5t-83 -59t-106.5 -21.5z" />
    <glyph glyph-name="R" unicode="R" horiz-adv-x="611" 
d="M91 0h96v312h107l180 -312h120l-201 323q40 5 72.5 22t55 42.5t34.5 57t12 65.5q0 33 -10 68.5t-35.5 64t-69.5 47t-112 18.5h-249v-708zM187 624h126q29 0 56 -4.5t48.5 -16.5t34.5 -34.5t13 -58.5t-13 -58.5t-34.5 -34.5t-48.5 -16.5t-56 -4.5h-126v228z" />
    <glyph glyph-name="S" unicode="S" 
d="M33 80q36 -50 97 -74t129 -24q51 0 96 15t78 43t52.5 69t19.5 92q0 64 -26 100.5t-64.5 58t-84 33.5t-84 27t-64.5 39t-26 69q0 17 6.5 35.5t22.5 35t42.5 27t66.5 10.5q42 0 75 -17t51 -45l78 71q-40 49 -93 65t-111 16q-64 0 -109.5 -19.5t-74.5 -48.5t-42.5 -64
t-13.5 -66q0 -69 26 -109.5t64.5 -64.5t84 -37.5t84 -28t64.5 -36t26 -62.5q0 -29 -13 -51t-33.5 -37t-45.5 -22.5t-49 -7.5q-43 0 -83.5 18.5t-66.5 57.5z" />
    <glyph glyph-name="T" unicode="T" horiz-adv-x="574" 
d="M239 0h96v618h228v90h-552v-90h228v-618z" />
    <glyph glyph-name="U" unicode="U" horiz-adv-x="704" 
d="M78 708v-449q0 -61 21 -112t58 -88t87 -57t108 -20t108 20t87 57t58 88t21 112v449h-96v-434q0 -33 -9 -68.5t-30 -65.5t-55 -49t-84 -19t-84 19t-55 49t-30 65.5t-9 68.5v434h-96z" />
    <glyph glyph-name="V" unicode="V" horiz-adv-x="630" 
d="M267 0h90l279 708h-105l-216 -576h-2l-208 576h-111z" />
    <glyph glyph-name="W" unicode="W" horiz-adv-x="962" 
d="M208 0h101l171 578h2l172 -578h101l206 708h-100l-156 -566h-2l-167 566h-110l-167 -566h-2l-156 566h-100z" />
    <glyph glyph-name="X" unicode="X" horiz-adv-x="648" 
d="M-2 0h119l204 307l203 -307h126l-260 373l236 335h-120l-182 -272l-184 272h-123l238 -336z" />
    <glyph glyph-name="Y" unicode="Y" horiz-adv-x="612" 
d="M258 0h96v302l268 406h-117l-199 -311l-193 311h-123l268 -406v-302z" />
    <glyph glyph-name="Z" unicode="Z" horiz-adv-x="593" 
d="M32 0h529v90h-407l401 528v90h-511v-90h391l-403 -528v-90z" />
    <glyph glyph-name="bracketleft" unicode="[" horiz-adv-x="278" 
d="M72 -156h174v66h-90v756h90v66h-174v-888z" />
    <glyph glyph-name="backslash" unicode="\" horiz-adv-x="389" 
d="M319 -44l70 26l-320 770l-69 -26z" />
    <glyph glyph-name="bracketright" unicode="]" horiz-adv-x="278" 
d="M32 -156h174v888h-174v-66h90v-756h-90v-66z" />
    <glyph glyph-name="asciicircum" unicode="^" horiz-adv-x="666" 
d="M80 276h83l170 353l170 -353h83l-213 432h-80z" />
    <glyph glyph-name="underscore" unicode="_" horiz-adv-x="500" 
d="M0 -125h500v50h-500v-50z" />
    <glyph glyph-name="grave" unicode="`" horiz-adv-x="240" 
d="M82 708h-128l149 -144h83z" />
    <glyph glyph-name="a" unicode="a" horiz-adv-x="519" 
d="M124 360q12 9 25 19t29 17.5t35.5 12.5t45.5 5q29 0 50 -8.5t35 -23t21 -32.5t7 -36v-20h-66q-54 0 -101.5 -8.5t-83 -28t-56 -50.5t-20.5 -77q0 -34 13.5 -60.5t36 -44.5t52 -27.5t62.5 -9.5q54 0 95 19t71 65h2q0 -36 3 -72h80q-2 19 -3 40t-1 46v242q0 31 -11 59.5
t-35 50.5t-61.5 35t-90.5 13q-50 0 -100 -17.5t-88 -52.5zM372 228v-30q0 -24 -7 -48.5t-23 -44.5t-41.5 -32.5t-63.5 -12.5q-47 0 -74.5 18t-27.5 59q0 29 17.5 46.5t45 27.5t61 13.5t65.5 3.5h48z" />
    <glyph glyph-name="b" unicode="b" horiz-adv-x="611" 
d="M68 0h90v68h2q26 -38 71.5 -59t93.5 -21q55 0 99.5 19t76 53t48.5 79.5t17 97.5q0 53 -17 98.5t-48.5 79t-76 52.5t-99.5 19q-51 0 -96 -21.5t-69 -58.5h-2v350h-90v-756zM314 72q-36 0 -65 12.5t-49 34t-31 52t-11 66.5t11 66.5t31 52t49 34t65 12.5t65 -12.5t49 -34
t31 -52t11 -66.5t-11 -66.5t-31 -52t-49 -34t-65 -12.5z" />
    <glyph glyph-name="c" unicode="c" horiz-adv-x="482" 
d="M475 410q-35 38 -82.5 56.5t-99.5 18.5q-55 0 -101 -18.5t-78.5 -51.5t-50.5 -79t-18 -101t18 -100.5t51 -78t78.5 -50.5t100.5 -18q52 0 98.5 17t81.5 56l-64 64q-23 -26 -50 -39.5t-65 -13.5q-35 0 -63 12.5t-48 34.5t-31 51.5t-11 62.5t9.5 63.5t28 54t46 37
t64.5 13.5q38 0 65.5 -13.5t52.5 -39.5z" />
    <glyph glyph-name="d" unicode="d" horiz-adv-x="611" 
d="M543 756h-90v-350h-2q-24 37 -69 58.5t-96 21.5q-55 0 -99.5 -19t-76 -52.5t-48.5 -79t-17 -98.5q0 -52 17 -97.5t48.5 -79.5t76 -53t99.5 -19q48 0 93.5 21t71.5 59h2v-68h90v756zM297 72q-36 0 -65 12.5t-49 34t-31 52t-11 66.5t11 66.5t31 52t49 34t65 12.5t65 -12.5
t49 -34t31 -52t11 -66.5t-11 -66.5t-31 -52t-49 -34t-65 -12.5z" />
    <glyph glyph-name="e" unicode="e" 
d="M516 204v32q0 46 -12.5 90.5t-40.5 80t-71.5 57.5t-106.5 22q-53 0 -98 -19t-77.5 -52.5t-51 -79t-18.5 -98.5t17 -98.5t48.5 -79t77 -52.5t101.5 -19q135 0 210 97l-68 52q-26 -32 -57 -51.5t-73 -19.5q-31 0 -60 10t-51 28t-35.5 43.5t-13.5 56.5h380zM136 276
q0 24 10.5 48.5t29.5 44.5t46.5 32.5t60.5 12.5q34 0 59.5 -10.5t42.5 -29t25.5 -43.5t9.5 -55h-284z" />
    <glyph glyph-name="f" unicode="f" horiz-adv-x="333" 
d="M103 0h90v396h108v78h-107v109q0 25 3 44.5t11 33.5t23 21.5t40 7.5q14 0 26 -2t25 -7l10 80q-19 5 -35.5 6t-31.5 1q-89 0 -125.5 -46.5t-36.5 -141.5v-106h-102v-78h102v-396z" />
    <glyph glyph-name="g" unicode="g" horiz-adv-x="611" 
d="M543 474h-90v-68h-2q-26 38 -71.5 59t-93.5 21q-55 0 -99.5 -19t-76 -53t-48.5 -79t-17 -98q0 -52 18 -96.5t50 -77t76.5 -51t96.5 -18.5q49 0 93.5 20.5t70.5 63.5h3v-70q0 -30 -8 -59.5t-27.5 -52.5t-52.5 -37.5t-83 -14.5q-52 0 -93 19.5t-76 57.5l-61 -76
q51 -47 107.5 -66t124.5 -19q58 0 106 18t82 50.5t52.5 77t18.5 98.5v470zM297 402q36 0 65 -12.5t49 -34t31 -52t11 -66.5q0 -72 -42 -115.5t-114 -43.5t-114 43.5t-42 115.5q0 36 11 66.5t31 52t49 34t65 12.5z" />
    <glyph glyph-name="h" unicode="h" 
d="M68 0h90v244q0 41 10 71t28 49.5t42 28.5t52 9q21 0 40.5 -6.5t34.5 -21t24 -38t9 -56.5v-280h90v305q0 47 -14 81.5t-37.5 56.5t-54.5 32.5t-66 10.5q-55 0 -97 -23.5t-59 -61.5h-2v355h-90v-756z" />
    <glyph glyph-name="i" unicode="i" horiz-adv-x="240" 
d="M75 0h90v474h-90v-474zM54 644q0 -27 19.5 -46.5t46.5 -19.5t46.5 19.5t19.5 46.5t-19.5 46.5t-46.5 19.5t-46.5 -19.5t-19.5 -46.5z" />
    <glyph glyph-name="j" unicode="j" horiz-adv-x="240" 
d="M75 474v-538q0 -45 -14.5 -68.5t-51.5 -23.5q-9 0 -19 2.5t-18 5.5l-10 -83q14 -5 28.5 -7t29.5 -2q54 0 83.5 20t43 47.5t16 57t2.5 47.5v542h-90zM54 644q0 -27 19.5 -46.5t46.5 -19.5t46.5 19.5t19.5 46.5t-19.5 46.5t-46.5 19.5t-46.5 -19.5t-19.5 -46.5z" />
    <glyph glyph-name="k" unicode="k" horiz-adv-x="519" 
d="M68 0h90v246l220 -246h128l-240 258l221 215h-125l-204 -205v488h-90v-756z" />
    <glyph glyph-name="l" unicode="l" horiz-adv-x="240" 
d="M75 0h90v756h-90v-756z" />
    <glyph glyph-name="m" unicode="m" horiz-adv-x="852" 
d="M68 0h90v246q0 40 10 69.5t27 48.5t39.5 28.5t46.5 9.5q33 0 52.5 -11.5t30 -32t14 -48.5t3.5 -62v-248h90v259q0 63 28 103t93 40q33 0 53 -11.5t31 -30.5t14.5 -44t3.5 -52v-264h90v276q0 40 -7.5 77.5t-27.5 67t-55 47.5t-90 18q-43 0 -85 -22t-65 -66q-23 44 -59 66
t-89 22q-32 0 -58.5 -9.5t-46 -23t-32 -28t-15.5 -25.5h-2v74h-84v-474z" />
    <glyph glyph-name="n" unicode="n" 
d="M68 0h90v244q0 41 10 71t28 49.5t42 28.5t52 9q21 0 40.5 -6.5t34.5 -21t24 -38t9 -56.5v-280h90v305q0 47 -14 81.5t-37.5 56.5t-54.5 32.5t-66 10.5q-55 0 -97 -23.5t-59 -61.5h-2v73h-90v-474z" />
    <glyph glyph-name="o" unicode="o" horiz-adv-x="594" 
d="M141 237q0 36 11 66.5t31 52t49 34t65 12.5t65 -12.5t49 -34t31 -52t11 -66.5t-11 -66.5t-31 -52t-49 -34t-65 -12.5t-65 12.5t-49 34t-31 52t-11 66.5zM45 237q0 -52 19.5 -97t53.5 -79t80 -53.5t99 -19.5t99 19.5t80 53.5t53.5 79t19.5 97t-19.5 97.5t-53.5 79t-80 53
t-99 19.5t-99 -19.5t-80 -53t-53.5 -79t-19.5 -97.5z" />
    <glyph glyph-name="p" unicode="p" horiz-adv-x="611" 
d="M68 -282h90v350h2q24 -37 69 -58.5t96 -21.5q55 0 99.5 19t76 52.5t48.5 79t17 98.5t-17 98t-48.5 79t-76 53t-99.5 19q-48 0 -93.5 -21t-71.5 -59h-2v68h-90v-756zM314 402q36 0 65 -12.5t49 -34t31 -52t11 -66.5t-11 -66.5t-31 -52t-49 -34t-65 -12.5t-65 12.5t-49 34
t-31 52t-11 66.5t11 66.5t31 52t49 34t65 12.5z" />
    <glyph glyph-name="q" unicode="q" horiz-adv-x="611" 
d="M543 474h-90v-68h-2q-26 38 -71.5 59t-93.5 21q-55 0 -99.5 -19t-76 -53t-48.5 -79t-17 -98t17 -98.5t48.5 -79t76 -52.5t99.5 -19q51 0 96 21.5t69 58.5h2v-296h90v702zM297 402q36 0 65 -12.5t49 -34t31 -52t11 -66.5t-11 -66.5t-31 -52t-49 -34t-65 -12.5t-65 12.5
t-49 34t-31 52t-11 66.5t11 66.5t31 52t49 34t65 12.5z" />
    <glyph glyph-name="r" unicode="r" horiz-adv-x="370" 
d="M68 0h90v238q0 78 35 115t101 37q11 0 22 -2t22 -5l4 97q-18 6 -40 6t-44 -6t-40.5 -17.5t-33.5 -27t-24 -34.5h-2v73h-90v-474z" />
    <glyph glyph-name="s" unicode="s" horiz-adv-x="444" 
d="M390 408q-26 42 -70 60t-92 18q-33 0 -65.5 -9t-58 -27t-41 -45.5t-15.5 -64.5q0 -34 12 -56.5t32 -37.5t46 -24.5t55 -16.5q15 -3 34.5 -7.5t37 -12t30 -20.5t12.5 -33q0 -15 -8.5 -26.5t-22 -19t-31 -11t-34.5 -3.5q-39 0 -66 17t-49 39l-68 -56q35 -48 79.5 -66
t103.5 -18q35 0 69.5 8t61.5 26t44 46.5t17 68.5q0 33 -10.5 56.5t-29 39t-44 25.5t-54.5 17q-15 3 -36 7t-39.5 12t-32 21t-13.5 34q0 26 23.5 39.5t55.5 13.5q34 0 57.5 -13.5t39.5 -33.5z" />
    <glyph glyph-name="t" unicode="t" horiz-adv-x="370" 
d="M322 474h-129v133h-90v-133h-104v-78h104v-247q0 -28 2.5 -57t16 -52t42 -37.5t80.5 -14.5q14 0 39.5 3.5t41.5 12.5v82q-14 -8 -31 -11t-33 -3q-25 0 -39 9.5t-20.5 25t-7.5 35t-1 39.5v215h129v78z" />
    <glyph glyph-name="u" unicode="u" 
d="M488 474h-90v-244q0 -41 -10 -71t-28 -49.5t-42 -28.5t-52 -9q-21 0 -40.5 6.5t-34.5 21t-24 38t-9 56.5v280h-90v-305q0 -47 14 -81.5t37.5 -56.5t55 -32.5t65.5 -10.5q55 0 97 23.5t59 61.5h2v-73h90v474z" />
    <glyph glyph-name="v" unicode="v" horiz-adv-x="500" 
d="M204 0h99l186 474h-96l-136 -363l-142 363h-104z" />
    <glyph glyph-name="w" unicode="w" horiz-adv-x="759" 
d="M167 0h97l113 354h2l125 -354h91l153 474h-95l-102 -354h-2l-120 354h-95l-113 -354h-2l-107 354h-101z" />
    <glyph glyph-name="x" unicode="x" horiz-adv-x="519" 
d="M6 0h111l140 199l140 -199h116l-192 253l162 221h-109l-113 -168l-115 168h-116l168 -221z" />
    <glyph glyph-name="y" unicode="y" horiz-adv-x="500" 
d="M208 -3l-29 -75q-7 -18 -14 -32t-17.5 -24.5t-25 -16t-35.5 -5.5q-27 0 -54 11l-11 -82q19 -8 39.5 -10.5t40.5 -2.5q37 0 62.5 10t43.5 28t31 43.5t25 56.5l225 576h-97l-134 -370h-2l-141 370h-104z" />
    <glyph glyph-name="z" unicode="z" horiz-adv-x="463" 
d="M35 0h393v78h-285l271 316v80h-370v-78h260l-269 -315v-81z" />
    <glyph glyph-name="braceleft" unicode="{" horiz-adv-x="333" 
d="M304 732h-75q-19 0 -37.5 -8.5t-33.5 -25t-24.5 -41t-9.5 -56.5v-158q-2 -55 -26 -86t-58 -31v-78q34 0 58 -31t26 -86v-134q0 -40 9.5 -69t24.5 -47.5t33.5 -27.5t37.5 -9h75v72h-45q-15 0 -24.5 7.5t-15.5 20t-8.5 28t-2.5 30.5v150q1 38 -8.5 63.5t-23.5 40.5
t-28.5 22t-23.5 8v3q9 2 23.5 10t28.5 24t23.5 40t8.5 59v151q0 16 2.5 31.5t8.5 28t15.5 20t24.5 7.5h45v72z" />
    <glyph glyph-name="bar" unicode="|" horiz-adv-x="222" 
d="M72 750v-1000h78v1000h-78z" />
    <glyph glyph-name="braceright" unicode="}" horiz-adv-x="333" 
d="M29 -156h75q19 0 37.5 8.5t33.5 25t24.5 41t9.5 56.5v158q0 55 25 86t59 31v78q-34 0 -59 31t-25 86v134q0 40 -9.5 69t-24.5 47.5t-33.5 27.5t-37.5 9h-75v-72h45q15 0 24.5 -7.5t15.5 -20t8.5 -28t2.5 -30.5v-150q-1 -38 8.5 -63.5t23.5 -40.5t28.5 -22t23.5 -8v-3
q-9 -2 -23.5 -10t-28.5 -24t-23.5 -40t-8.5 -59v-151q0 -16 -2.5 -31.5t-8.5 -28t-15.5 -20t-24.5 -7.5h-45v-72z" />
    <glyph glyph-name="asciitilde" unicode="~" horiz-adv-x="666" 
d="M530 378q-21 -42 -43 -57.5t-46 -15.5q-23 0 -48 11.5t-51 25.5t-54.5 25t-58.5 11q-48 0 -79 -24.5t-54 -63.5l40 -62q6 13 14 25.5t18 23t23 17t29 6.5q24 0 50.5 -11t55.5 -25t58 -25t58 -11q33 0 65.5 18.5t62.5 69.5z" />
    <glyph glyph-name="Adieresis" horiz-adv-x="704" 
d="M1 0h112l70 175h337l71 -175h112l-303 708h-87zM217 259l134 325h2l132 -325h-268zM250 898q-23 0 -42.5 -16t-19.5 -41q0 -27 17.5 -45t44.5 -18t44.5 18t17.5 45q0 25 -19.5 41t-42.5 16zM454 898q-23 0 -42.5 -16t-19.5 -41q0 -27 17.5 -45t44.5 -18t44.5 18t17.5 45
q0 25 -19.5 41t-42.5 16z" />
    <glyph glyph-name="Aring" horiz-adv-x="704" 
d="M1 0h112l70 175h337l71 -175h112l-303 708h-87zM217 259l134 325h2l132 -325h-268zM250 825q0 -21 8.5 -38.5t22.5 -31t32.5 -21t38.5 -7.5q21 0 39.5 7.5t32.5 21t22 31.5t8 39t-8 38.5t-22 31t-32.5 21t-39.5 7.5q-20 0 -38.5 -7.5t-32.5 -21t-22.5 -31.5t-8.5 -39z
M412 825q0 -24 -18.5 -40t-41.5 -16t-41.5 16t-18.5 40q0 25 18 41t42 16t42 -16t18 -41z" />
    <glyph glyph-name="Ccedilla" unicode="&#x201a;" horiz-adv-x="704" 
d="M664 616q-43 56 -110.5 83t-137.5 27q-82 0 -149.5 -28t-116.5 -78.5t-76 -119.5t-27 -152q0 -61 21 -121t60.5 -109.5t96 -84.5t127.5 -46l-52 -74l21 -18q14 4 30.5 6.5t30.5 0t23.5 -11.5t9.5 -28q0 -13 -6 -21t-15.5 -12.5t-20 -6.5t-19.5 -2q-40 0 -78 15l-19 -40
q25 -12 51.5 -17.5t53.5 -5.5q21 0 43.5 5t40.5 16t29.5 29t11.5 45q0 19 -8 32.5t-21 22.5t-29.5 13t-33.5 4h-29l32 44q5 -1 13 -1q61 0 107.5 15.5t79.5 36t53 41t28 31.5l-81 61q-32 -45 -78 -70t-107 -25q-62 0 -111 22t-83 60t-52 88t-18 106q0 60 19 112.5t53.5 91.5
t83 61.5t108.5 22.5q49 0 95 -21t76 -60z" />
    <glyph glyph-name="Eacute" unicode="&#x192;" horiz-adv-x="611" 
d="M91 0h475v90h-379v227h336v90h-336v211h361v90h-457v-708zM240 748h83l149 144h-128z" />
    <glyph glyph-name="Ntilde" unicode="&#x201e;" horiz-adv-x="796" 
d="M91 0h96v582h2l394 -582h122v708h-96v-582h-2l-390 582h-126v-708zM278 760q5 17 16.5 30.5t30.5 13.5q17 0 34 -6.5t32 -12.5q19 -8 39.5 -14.5t41.5 -6.5q22 0 38.5 9t27.5 24t18 33.5t10 37.5h-48q-5 -18 -17 -31t-32 -13q-16 0 -27.5 5.5t-26.5 11.5
q-20 8 -40.5 15.5t-43.5 7.5q-22 0 -39.5 -9t-30 -23.5t-20.5 -33t-11 -38.5h48z" />
    <glyph glyph-name="Odieresis" unicode="&#x2026;" horiz-adv-x="832" 
d="M416 -18q81 0 149 28.5t116.5 78.5t76 118t27.5 147t-27.5 147t-76 118t-116.5 78.5t-149 28.5t-149 -28.5t-116.5 -78.5t-76 -118t-27.5 -147t27.5 -147t76 -118t116.5 -78.5t149 -28.5zM416 72q-61 0 -110 22.5t-84 60.5t-54 89.5t-19 109.5t19 109.5t54 89.5t84 60.5
t110 22.5t110 -22.5t84 -60.5t54 -89.5t19 -109.5t-19 -109.5t-54 -89.5t-84 -60.5t-110 -22.5zM314 898q-23 0 -42.5 -16t-19.5 -41q0 -27 17.5 -45t44.5 -18t44.5 18t17.5 45q0 25 -19.5 41t-42.5 16zM518 898q-23 0 -42.5 -16t-19.5 -41q0 -27 17.5 -45t44.5 -18t44.5 18
t17.5 45q0 25 -19.5 41t-42.5 16z" />
    <glyph glyph-name="Udieresis" unicode="&#x2020;" horiz-adv-x="704" 
d="M78 708v-449q0 -61 21 -112t58 -88t87 -57t108 -20t108 20t87 57t58 88t21 112v449h-96v-434q0 -33 -9 -68.5t-30 -65.5t-55 -49t-84 -19t-84 19t-55 49t-30 65.5t-9 68.5v434h-96zM250 898q-23 0 -42.5 -16t-19.5 -41q0 -27 17.5 -45t44.5 -18t44.5 18t17.5 45
q0 25 -19.5 41t-42.5 16zM454 898q-23 0 -42.5 -16t-19.5 -41q0 -27 17.5 -45t44.5 -18t44.5 18t17.5 45q0 25 -19.5 41t-42.5 16z" />
    <glyph glyph-name="aacute" unicode="&#x2021;" horiz-adv-x="519" 
d="M124 360q12 9 25 19t29 17.5t35.5 12.5t45.5 5q29 0 50 -8.5t35 -23t21 -32.5t7 -36v-20h-66q-54 0 -101.5 -8.5t-83 -28t-56 -50.5t-20.5 -77q0 -34 13.5 -60.5t36 -44.5t52 -27.5t62.5 -9.5q54 0 95 19t71 65h2q0 -36 3 -72h80q-2 19 -3 40t-1 46v242q0 31 -11 59.5
t-35 50.5t-61.5 35t-90.5 13q-50 0 -100 -17.5t-88 -52.5zM372 228v-30q0 -24 -7 -48.5t-23 -44.5t-41.5 -32.5t-63.5 -12.5q-47 0 -74.5 18t-27.5 59q0 29 17.5 46.5t45 27.5t61 13.5t65.5 3.5h48zM194 564h83l149 144h-128z" />
    <glyph glyph-name="agrave" unicode="&#x2c6;" horiz-adv-x="519" 
d="M124 360q12 9 25 19t29 17.5t35.5 12.5t45.5 5q29 0 50 -8.5t35 -23t21 -32.5t7 -36v-20h-66q-54 0 -101.5 -8.5t-83 -28t-56 -50.5t-20.5 -77q0 -34 13.5 -60.5t36 -44.5t52 -27.5t62.5 -9.5q54 0 95 19t71 65h2q0 -36 3 -72h80q-2 19 -3 40t-1 46v242q0 31 -11 59.5
t-35 50.5t-61.5 35t-90.5 13q-50 0 -100 -17.5t-88 -52.5zM372 228v-30q0 -24 -7 -48.5t-23 -44.5t-41.5 -32.5t-63.5 -12.5q-47 0 -74.5 18t-27.5 59q0 29 17.5 46.5t45 27.5t61 13.5t65.5 3.5h48zM222 708h-128l149 -144h83z" />
    <glyph glyph-name="acircumflex" unicode="&#x2030;" horiz-adv-x="519" 
d="M124 360q12 9 25 19t29 17.5t35.5 12.5t45.5 5q29 0 50 -8.5t35 -23t21 -32.5t7 -36v-20h-66q-54 0 -101.5 -8.5t-83 -28t-56 -50.5t-20.5 -77q0 -34 13.5 -60.5t36 -44.5t52 -27.5t62.5 -9.5q54 0 95 19t71 65h2q0 -36 3 -72h80q-2 19 -3 40t-1 46v242q0 31 -11 59.5
t-35 50.5t-61.5 35t-90.5 13q-50 0 -100 -17.5t-88 -52.5zM372 228v-30q0 -24 -7 -48.5t-23 -44.5t-41.5 -32.5t-63.5 -12.5q-47 0 -74.5 18t-27.5 59q0 29 17.5 46.5t45 27.5t61 13.5t65.5 3.5h48zM425 564l-112 144h-106l-112 -144h91l74 96l74 -96h91z" />
    <glyph glyph-name="adieresis" unicode="&#x160;" horiz-adv-x="519" 
d="M124 360q12 9 25 19t29 17.5t35.5 12.5t45.5 5q29 0 50 -8.5t35 -23t21 -32.5t7 -36v-20h-66q-54 0 -101.5 -8.5t-83 -28t-56 -50.5t-20.5 -77q0 -34 13.5 -60.5t36 -44.5t52 -27.5t62.5 -9.5q54 0 95 19t71 65h2q0 -36 3 -72h80q-2 19 -3 40t-1 46v242q0 31 -11 59.5
t-35 50.5t-61.5 35t-90.5 13q-50 0 -100 -17.5t-88 -52.5zM372 228v-30q0 -24 -7 -48.5t-23 -44.5t-41.5 -32.5t-63.5 -12.5q-47 0 -74.5 18t-27.5 59q0 29 17.5 46.5t45 27.5t61 13.5t65.5 3.5h48zM158 714q-23 0 -42.5 -16t-19.5 -41q0 -27 17.5 -45t44.5 -18t44.5 18
t17.5 45q0 25 -19.5 41t-42.5 16zM362 714q-23 0 -42.5 -16t-19.5 -41q0 -27 17.5 -45t44.5 -18t44.5 18t17.5 45q0 25 -19.5 41t-42.5 16z" />
    <glyph glyph-name="atilde" unicode="&#x2039;" horiz-adv-x="519" 
d="M124 360q12 9 25 19t29 17.5t35.5 12.5t45.5 5q29 0 50 -8.5t35 -23t21 -32.5t7 -36v-20h-66q-54 0 -101.5 -8.5t-83 -28t-56 -50.5t-20.5 -77q0 -34 13.5 -60.5t36 -44.5t52 -27.5t62.5 -9.5q54 0 95 19t71 65h2q0 -36 3 -72h80q-2 19 -3 40t-1 46v242q0 31 -11 59.5
t-35 50.5t-61.5 35t-90.5 13q-50 0 -100 -17.5t-88 -52.5zM372 228v-30q0 -24 -7 -48.5t-23 -44.5t-41.5 -32.5t-63.5 -12.5q-47 0 -74.5 18t-27.5 59q0 29 17.5 46.5t45 27.5t61 13.5t65.5 3.5h48zM140 576q5 17 16.5 30.5t30.5 13.5q17 0 34 -6.5t32 -12.5
q19 -8 39.5 -14.5t41.5 -6.5q22 0 38.5 9t27.5 24t18 33.5t10 37.5h-48q-5 -18 -17 -31t-32 -13q-16 0 -27.5 5.5t-26.5 11.5q-20 8 -40.5 15.5t-43.5 7.5q-22 0 -39.5 -9t-30 -23.5t-20.5 -33t-11 -38.5h48z" />
    <glyph glyph-name="aring" unicode="&#x152;" horiz-adv-x="519" 
d="M124 360q12 9 25 19t29 17.5t35.5 12.5t45.5 5q29 0 50 -8.5t35 -23t21 -32.5t7 -36v-20h-66q-54 0 -101.5 -8.5t-83 -28t-56 -50.5t-20.5 -77q0 -34 13.5 -60.5t36 -44.5t52 -27.5t62.5 -9.5q54 0 95 19t71 65h2q0 -36 3 -72h80q-2 19 -3 40t-1 46v242q0 31 -11 59.5
t-35 50.5t-61.5 35t-90.5 13q-50 0 -100 -17.5t-88 -52.5zM372 228v-30q0 -24 -7 -48.5t-23 -44.5t-41.5 -32.5t-63.5 -12.5q-47 0 -74.5 18t-27.5 59q0 29 17.5 46.5t45 27.5t61 13.5t65.5 3.5h48zM158 651q0 -21 8.5 -38.5t22.5 -31t32.5 -21t38.5 -7.5q21 0 39.5 7.5
t32.5 21t22 31.5t8 39t-8 38.5t-22 31t-32.5 21t-39.5 7.5q-20 0 -38.5 -7.5t-32.5 -21t-22.5 -31.5t-8.5 -39zM320 651q0 -24 -18.5 -40t-41.5 -16t-41.5 16t-18.5 40q0 25 18 41t42 16t42 -16t18 -41z" />
    <glyph glyph-name="ccedilla" horiz-adv-x="482" 
d="M475 410q-35 38 -82.5 56.5t-99.5 18.5q-55 0 -101 -18.5t-78.5 -51.5t-50.5 -79t-18 -101q0 -50 15 -92t42.5 -73.5t66 -51.5t85.5 -26l-55 -79l21 -18q14 4 30.5 6.5t30.5 0t23.5 -11.5t9.5 -28q0 -13 -6 -21t-15.5 -12.5t-20 -6.5t-19.5 -2q-40 0 -78 15l-19 -40
q25 -12 51.5 -17.5t53.5 -5.5q21 0 43.5 5t40.5 16t29.5 29t11.5 45q0 19 -8 32.5t-21 22.5t-29.5 13t-33.5 4h-29l36 50q50 1 94 17.5t78 54.5l-64 64q-23 -26 -50 -39.5t-65 -13.5q-35 0 -63 12.5t-48 34.5t-31 51.5t-11 62.5t9.5 63.5t28 54t46 37t64.5 13.5
q38 0 65.5 -13.5t52.5 -39.5z" />
    <glyph glyph-name="eacute" 
d="M516 204v32q0 46 -12.5 90.5t-40.5 80t-71.5 57.5t-106.5 22q-53 0 -98 -19t-77.5 -52.5t-51 -79t-18.5 -98.5t17 -98.5t48.5 -79t77 -52.5t101.5 -19q135 0 210 97l-68 52q-26 -32 -57 -51.5t-73 -19.5q-31 0 -60 10t-51 28t-35.5 43.5t-13.5 56.5h380zM136 276
q0 24 10.5 48.5t29.5 44.5t46.5 32.5t60.5 12.5q34 0 59.5 -10.5t42.5 -29t25.5 -43.5t9.5 -55h-284zM212 564h83l149 144h-128z" />
    <glyph glyph-name="egrave" 
d="M516 204v32q0 46 -12.5 90.5t-40.5 80t-71.5 57.5t-106.5 22q-53 0 -98 -19t-77.5 -52.5t-51 -79t-18.5 -98.5t17 -98.5t48.5 -79t77 -52.5t101.5 -19q135 0 210 97l-68 52q-26 -32 -57 -51.5t-73 -19.5q-31 0 -60 10t-51 28t-35.5 43.5t-13.5 56.5h380zM136 276
q0 24 10.5 48.5t29.5 44.5t46.5 32.5t60.5 12.5q34 0 59.5 -10.5t42.5 -29t25.5 -43.5t9.5 -55h-284zM240 708h-128l149 -144h83z" />
    <glyph glyph-name="ecircumflex" 
d="M516 204v32q0 46 -12.5 90.5t-40.5 80t-71.5 57.5t-106.5 22q-53 0 -98 -19t-77.5 -52.5t-51 -79t-18.5 -98.5t17 -98.5t48.5 -79t77 -52.5t101.5 -19q135 0 210 97l-68 52q-26 -32 -57 -51.5t-73 -19.5q-31 0 -60 10t-51 28t-35.5 43.5t-13.5 56.5h380zM136 276
q0 24 10.5 48.5t29.5 44.5t46.5 32.5t60.5 12.5q34 0 59.5 -10.5t42.5 -29t25.5 -43.5t9.5 -55h-284zM443 564l-112 144h-106l-112 -144h91l74 96l74 -96h91z" />
    <glyph glyph-name="edieresis" unicode="&#x2018;" 
d="M516 204v32q0 46 -12.5 90.5t-40.5 80t-71.5 57.5t-106.5 22q-53 0 -98 -19t-77.5 -52.5t-51 -79t-18.5 -98.5t17 -98.5t48.5 -79t77 -52.5t101.5 -19q135 0 210 97l-68 52q-26 -32 -57 -51.5t-73 -19.5q-31 0 -60 10t-51 28t-35.5 43.5t-13.5 56.5h380zM136 276
q0 24 10.5 48.5t29.5 44.5t46.5 32.5t60.5 12.5q34 0 59.5 -10.5t42.5 -29t25.5 -43.5t9.5 -55h-284zM176 714q-23 0 -42.5 -16t-19.5 -41q0 -27 17.5 -45t44.5 -18t44.5 18t17.5 45q0 25 -19.5 41t-42.5 16zM380 714q-23 0 -42.5 -16t-19.5 -41q0 -27 17.5 -45t44.5 -18
t44.5 18t17.5 45q0 25 -19.5 41t-42.5 16z" />
    <glyph glyph-name="iacute" unicode="&#x2019;" horiz-adv-x="240" 
d="M75 0h90v474h-90v-474zM54 564h83l149 144h-128z" />
    <glyph glyph-name="igrave" unicode="&#x201c;" horiz-adv-x="240" 
d="M75 0h90v474h-90v-474zM82 708h-128l149 -144h83z" />
    <glyph glyph-name="icircumflex" unicode="&#x201d;" horiz-adv-x="240" 
d="M75 0h90v474h-90v-474zM285 564l-112 144h-106l-112 -144h91l74 96l74 -96h91z" />
    <glyph glyph-name="idieresis" unicode="&#x2022;" horiz-adv-x="240" 
d="M75 0h90v474h-90v-474zM18 714q-23 0 -42.5 -16t-19.5 -41q0 -27 17.5 -45t44.5 -18t44.5 18t17.5 45q0 25 -19.5 41t-42.5 16zM222 714q-23 0 -42.5 -16t-19.5 -41q0 -27 17.5 -45t44.5 -18t44.5 18t17.5 45q0 25 -19.5 41t-42.5 16z" />
    <glyph glyph-name="ntilde" unicode="&#x2013;" 
d="M68 0h90v244q0 41 10 71t28 49.5t42 28.5t52 9q21 0 40.5 -6.5t34.5 -21t24 -38t9 -56.5v-280h90v305q0 47 -14 81.5t-37.5 56.5t-54.5 32.5t-66 10.5q-55 0 -97 -23.5t-59 -61.5h-2v73h-90v-474zM158 576q5 17 16.5 30.5t30.5 13.5q17 0 34 -6.5t32 -12.5
q19 -8 39.5 -14.5t41.5 -6.5q22 0 38.5 9t27.5 24t18 33.5t10 37.5h-48q-5 -18 -17 -31t-32 -13q-16 0 -27.5 5.5t-26.5 11.5q-20 8 -40.5 15.5t-43.5 7.5q-22 0 -39.5 -9t-30 -23.5t-20.5 -33t-11 -38.5h48z" />
    <glyph glyph-name="oacute" unicode="&#x2014;" horiz-adv-x="594" 
d="M141 237q0 36 11 66.5t31 52t49 34t65 12.5t65 -12.5t49 -34t31 -52t11 -66.5t-11 -66.5t-31 -52t-49 -34t-65 -12.5t-65 12.5t-49 34t-31 52t-11 66.5zM45 237q0 -52 19.5 -97t53.5 -79t80 -53.5t99 -19.5t99 19.5t80 53.5t53.5 79t19.5 97t-19.5 97.5t-53.5 79t-80 53
t-99 19.5t-99 -19.5t-80 -53t-53.5 -79t-19.5 -97.5zM231 564h83l149 144h-128z" />
    <glyph glyph-name="ograve" unicode="&#x2dc;" horiz-adv-x="594" 
d="M141 237q0 36 11 66.5t31 52t49 34t65 12.5t65 -12.5t49 -34t31 -52t11 -66.5t-11 -66.5t-31 -52t-49 -34t-65 -12.5t-65 12.5t-49 34t-31 52t-11 66.5zM45 237q0 -52 19.5 -97t53.5 -79t80 -53.5t99 -19.5t99 19.5t80 53.5t53.5 79t19.5 97t-19.5 97.5t-53.5 79t-80 53
t-99 19.5t-99 -19.5t-80 -53t-53.5 -79t-19.5 -97.5zM259 708h-128l149 -144h83z" />
    <glyph glyph-name="ocircumflex" unicode="&#x2122;" horiz-adv-x="594" 
d="M141 237q0 36 11 66.5t31 52t49 34t65 12.5t65 -12.5t49 -34t31 -52t11 -66.5t-11 -66.5t-31 -52t-49 -34t-65 -12.5t-65 12.5t-49 34t-31 52t-11 66.5zM45 237q0 -52 19.5 -97t53.5 -79t80 -53.5t99 -19.5t99 19.5t80 53.5t53.5 79t19.5 97t-19.5 97.5t-53.5 79t-80 53
t-99 19.5t-99 -19.5t-80 -53t-53.5 -79t-19.5 -97.5zM462 564l-112 144h-106l-112 -144h91l74 96l74 -96h91z" />
    <glyph glyph-name="odieresis" unicode="&#x161;" horiz-adv-x="594" 
d="M141 237q0 36 11 66.5t31 52t49 34t65 12.5t65 -12.5t49 -34t31 -52t11 -66.5t-11 -66.5t-31 -52t-49 -34t-65 -12.5t-65 12.5t-49 34t-31 52t-11 66.5zM45 237q0 -52 19.5 -97t53.5 -79t80 -53.5t99 -19.5t99 19.5t80 53.5t53.5 79t19.5 97t-19.5 97.5t-53.5 79t-80 53
t-99 19.5t-99 -19.5t-80 -53t-53.5 -79t-19.5 -97.5zM195 714q-23 0 -42.5 -16t-19.5 -41q0 -27 17.5 -45t44.5 -18t44.5 18t17.5 45q0 25 -19.5 41t-42.5 16zM399 714q-23 0 -42.5 -16t-19.5 -41q0 -27 17.5 -45t44.5 -18t44.5 18t17.5 45q0 25 -19.5 41t-42.5 16z" />
    <glyph glyph-name="otilde" unicode="&#x203a;" horiz-adv-x="594" 
d="M141 237q0 36 11 66.5t31 52t49 34t65 12.5t65 -12.5t49 -34t31 -52t11 -66.5t-11 -66.5t-31 -52t-49 -34t-65 -12.5t-65 12.5t-49 34t-31 52t-11 66.5zM45 237q0 -52 19.5 -97t53.5 -79t80 -53.5t99 -19.5t99 19.5t80 53.5t53.5 79t19.5 97t-19.5 97.5t-53.5 79t-80 53
t-99 19.5t-99 -19.5t-80 -53t-53.5 -79t-19.5 -97.5zM177 576q5 17 16.5 30.5t30.5 13.5q17 0 34 -6.5t32 -12.5q19 -8 39.5 -14.5t41.5 -6.5q22 0 38.5 9t27.5 24t18 33.5t10 37.5h-48q-5 -18 -17 -31t-32 -13q-16 0 -27.5 5.5t-26.5 11.5q-20 8 -40.5 15.5t-43.5 7.5
q-22 0 -39.5 -9t-30 -23.5t-20.5 -33t-11 -38.5h48z" />
    <glyph glyph-name="uacute" unicode="&#x153;" 
d="M488 474h-90v-244q0 -41 -10 -71t-28 -49.5t-42 -28.5t-52 -9q-21 0 -40.5 6.5t-34.5 21t-24 38t-9 56.5v280h-90v-305q0 -47 14 -81.5t37.5 -56.5t55 -32.5t65.5 -10.5q55 0 97 23.5t59 61.5h2v-73h90v474zM212 564h83l149 144h-128z" />
    <glyph glyph-name="ugrave" 
d="M488 474h-90v-244q0 -41 -10 -71t-28 -49.5t-42 -28.5t-52 -9q-21 0 -40.5 6.5t-34.5 21t-24 38t-9 56.5v280h-90v-305q0 -47 14 -81.5t37.5 -56.5t55 -32.5t65.5 -10.5q55 0 97 23.5t59 61.5h2v-73h90v474zM240 708h-128l149 -144h83z" />
    <glyph glyph-name="ucircumflex" 
d="M488 474h-90v-244q0 -41 -10 -71t-28 -49.5t-42 -28.5t-52 -9q-21 0 -40.5 6.5t-34.5 21t-24 38t-9 56.5v280h-90v-305q0 -47 14 -81.5t37.5 -56.5t55 -32.5t65.5 -10.5q55 0 97 23.5t59 61.5h2v-73h90v474zM443 564l-112 144h-106l-112 -144h91l74 96l74 -96h91z" />
    <glyph glyph-name="udieresis" unicode="&#x178;" 
d="M488 474h-90v-244q0 -41 -10 -71t-28 -49.5t-42 -28.5t-52 -9q-21 0 -40.5 6.5t-34.5 21t-24 38t-9 56.5v280h-90v-305q0 -47 14 -81.5t37.5 -56.5t55 -32.5t65.5 -10.5q55 0 97 23.5t59 61.5h2v-73h90v474zM176 714q-23 0 -42.5 -16t-19.5 -41q0 -27 17.5 -45t44.5 -18
t44.5 18t17.5 45q0 25 -19.5 41t-42.5 16zM380 714q-23 0 -42.5 -16t-19.5 -41q0 -27 17.5 -45t44.5 -18t44.5 18t17.5 45q0 25 -19.5 41t-42.5 16z" />
    <glyph glyph-name="dagger" unicode="&#xa0;" 
d="M233 -126h90v553h198v78h-198v203h-90v-203h-198v-78h198v-553z" />
    <glyph glyph-name="degree" unicode="&#xa1;" horiz-adv-x="400" 
d="M51 571q0 -31 12 -58t32 -47t47 -32t58 -12t58 12t47.5 32t32 47t11.5 58t-11.5 58t-32 47.5t-47.5 32t-58 11.5t-58 -11.5t-47 -32t-32 -47.5t-12 -58zM117 571q0 35 24 59t59 24t59 -24t24 -59t-24 -59t-59 -24t-59 24t-24 59z" />
    <glyph glyph-name="cent" unicode="&#xa2;" 
d="M342 408q29 -1 56 -17.5t46 -39.5l65 59q-30 35 -74.5 54.5t-92.5 21.5v66h-54v-66q-50 -7 -90 -28t-68 -53t-43 -74.5t-15 -93.5q0 -49 15 -92.5t43 -76.5t68 -54t90 -26v-66h54v66q51 4 93.5 21.5t71.5 50.5l-59 58q-43 -50 -106 -52v342zM288 66q-30 6 -53.5 22
t-39.5 39.5t-24.5 52t-8.5 59.5q0 30 8 58.5t24 51.5t39.5 38.5t54.5 20.5v-342z" />
    <glyph glyph-name="sterling" unicode="&#xa3;" 
d="M432 400h-162v76q0 44 11 74.5t29.5 49.5t43 27.5t50.5 8.5q25 0 50 -13t48 -35l61 70q-35 33 -78 47.5t-91 14.5q-55 0 -96 -18t-68.5 -48.5t-41.5 -70t-14 -83.5v-100h-96v-72h96v-244h-102v-84h444v84h-246v244h162v72z" />
    <glyph glyph-name="section" unicode="&#xa4;" 
d="M483 626q-12 27 -32 46t-44.5 31t-52 17.5t-54.5 5.5q-37 0 -73.5 -10.5t-65 -31t-46.5 -51t-18 -71.5q0 -40 22 -69t58 -49q-43 -21 -70.5 -56t-27.5 -95q0 -38 22 -66t54.5 -48.5t71 -37.5t71 -33.5t54.5 -35.5t22 -45q0 -23 -8.5 -39.5t-23 -27t-32.5 -15.5t-37 -5
q-43 0 -76.5 18t-47.5 60l-87 -41q27 -64 82.5 -92.5t121.5 -28.5q39 0 77 10.5t67.5 32t47.5 53.5t18 75q0 39 -17 69.5t-48 51.5q38 20 60.5 53.5t22.5 77.5q0 45 -22 75.5t-54.5 52.5t-71 38t-71 32.5t-54.5 36.5t-22 50q0 20 8 35t22 24.5t32 14t37 4.5
q35 -1 61.5 -15.5t39.5 -46.5zM322 362q14 -7 28.5 -15.5t26.5 -19.5t19.5 -25t7.5 -32q0 -26 -18.5 -50t-41.5 -38l-77 37q-16 8 -33.5 16.5t-31.5 19.5t-23.5 27t-9.5 39q0 33 23.5 51t50.5 28z" />
    <glyph glyph-name="bullet" unicode="&#xa5;" horiz-adv-x="500" 
d="M73 354q0 -37 14 -69t38 -56t56 -38t69 -14t69 14t56 38t38 56t14 69t-14 69t-38 56t-56 38t-69 14t-69 -14t-56 -38t-38 -56t-14 -69z" />
    <glyph glyph-name="paragraph" unicode="&#xa6;" horiz-adv-x="600" 
d="M260 -126h78v768h112v-768h78v834h-249q-106 0 -167 -53.5t-61 -151.5q0 -39 15.5 -73t43.5 -58.5t66 -39t84 -14.5v-444z" />
    <glyph glyph-name="germandbls" unicode="&#xa7;" horiz-adv-x="611" 
d="M68 0h90v520q0 35 6.5 65t21.5 52t40 34.5t62 12.5q20 0 40 -5.5t36 -18t26 -33.5t10 -51q0 -51 -31 -80t-82 -29h-16v-84h14q37 0 68.5 -9.5t55 -28.5t37 -48t13.5 -69q0 -75 -45 -115.5t-119 -40.5q-27 0 -53 6v-81q35 -9 71 -9q53 0 97 16t76.5 46t50.5 73t18 97
q0 51 -15.5 88.5t-40 63t-54.5 40t-60 18.5v2q51 15 81 54t30 101q0 44 -16 78t-44 57t-64.5 34.5t-78.5 11.5q-70 0 -114 -20.5t-68.5 -56t-33.5 -82.5t-9 -100v-509z" />
    <glyph glyph-name="registered" unicode="&#xa8;" horiz-adv-x="800" 
d="M257 144h78v174h57l106 -174h82l-111 180q44 5 73 33t29 84q0 62 -36.5 95t-113.5 33h-164v-425zM335 503h57q18 0 36 -1t32.5 -7t23.5 -18t9 -33t-9 -33t-23.5 -18t-32.5 -7.5t-36 -1.5h-57v119zM28 354q0 -77 29.5 -144.5t80 -118t118 -80t144.5 -29.5t144.5 29.5
t118 80t80 118t29.5 144.5t-29.5 144.5t-80 118t-118 80t-144.5 29.5t-144.5 -29.5t-118 -80t-80 -118t-29.5 -144.5zM94 354q0 63 24 119t65.5 97.5t97.5 65.5t119 24t119 -24t97.5 -65.5t65.5 -97.5t24 -119t-24 -119t-65.5 -97.5t-97.5 -65.5t-119 -24t-119 24
t-97.5 65.5t-65.5 97.5t-24 119z" />
    <glyph glyph-name="copyright" unicode="&#xa9;" horiz-adv-x="800" 
d="M28 354q0 -77 29.5 -144.5t80 -118t118 -80t144.5 -29.5t144.5 29.5t118 80t80 118t29.5 144.5t-29.5 144.5t-80 118t-118 80t-144.5 29.5t-144.5 -29.5t-118 -80t-80 -118t-29.5 -144.5zM512 286q-8 -39 -34.5 -62t-74.5 -23q-34 0 -61 12.5t-45.5 34t-28 50t-9.5 61.5
q0 72 35 113t107 41q50 0 75.5 -22t35.5 -59h77q-12 76 -63 114.5t-126 38.5q-53 0 -94 -16.5t-68.5 -46.5t-42 -72t-14.5 -93t15 -93t43.5 -72t70 -46.5t93.5 -16.5q72 0 121 42.5t65 114.5h-77zM94 354q0 63 24 119t65.5 97.5t97.5 65.5t119 24t119 -24t97.5 -65.5
t65.5 -97.5t24 -119t-24 -119t-65.5 -97.5t-97.5 -65.5t-119 -24t-119 24t-97.5 65.5t-65.5 97.5t-24 119z" />
    <glyph glyph-name="trademark" unicode="&#xaa;" horiz-adv-x="1000" 
d="M158 296h78v346h124v66h-326v-66h124v-346zM439 296h78v344h2l120 -344h63l120 344h2v-344h78v412h-119l-111 -316h-3l-111 316h-119v-412z" />
    <glyph glyph-name="acute" unicode="&#xab;" horiz-adv-x="240" 
d="M54 564h83l149 144h-128z" />
    <glyph glyph-name="dieresis" unicode="&#xac;" horiz-adv-x="240" 
d="M18 714q-23 0 -42.5 -16t-19.5 -41q0 -27 17.5 -45t44.5 -18t44.5 18t17.5 45q0 25 -19.5 41t-42.5 16zM222 714q-23 0 -42.5 -16t-19.5 -41q0 -27 17.5 -45t44.5 -18t44.5 18t17.5 45q0 25 -19.5 41t-42.5 16z" />
    <glyph glyph-name="AE" unicode="&#xae;" horiz-adv-x="963" 
d="M-8 0h118l101 172h304v-172h403v90h-307v227h277v90h-277v211h295v90h-456zM263 262l233 356h19v-356h-252z" />
    <glyph glyph-name="Oslash" unicode="&#xaf;" horiz-adv-x="832" 
d="M621 540q62 -77 62 -186q0 -58 -19 -109.5t-54 -89.5t-84 -60.5t-110 -22.5q-51 0 -93.5 15.5t-76.5 43.5zM207 173q-28 37 -43 83t-15 98q0 58 19 109.5t54 89.5t84 60.5t110 22.5q49 0 90.5 -15t74.5 -41zM98 -30l84 91q47 -38 106 -58.5t128 -20.5q81 0 149 28.5
t116.5 78.5t76 118t27.5 147q0 77 -25.5 143t-71.5 115l83 90l-42 38l-83 -90q-47 36 -105 56t-125 20q-81 0 -149 -28.5t-116.5 -78.5t-76 -118t-27.5 -147q0 -75 24 -139t69 -114l-85 -93z" />
    <glyph glyph-name="plusminus" unicode="&#xb1;" horiz-adv-x="666" 
d="M66 315h228v-150h78v150h228v78h-228v163h-78v-163h-228v-78zM66 51h534v78h-534v-78z" />
    <glyph glyph-name="yen" unicode="&#xb4;" 
d="M236 0h84v186h171v66h-171v53l17 28h154v66h-116l186 309h-102l-185 -316l-179 316h-100l184 -309h-114v-66h154l17 -28v-53h-171v-66h171v-186z" />
    <glyph glyph-name="mu" unicode="&#xb5;" 
d="M68 -228h90v234q36 -18 82 -18q55 0 97 23.5t59 61.5h2v-73h90v474h-90v-244q0 -41 -10 -71t-28 -49.5t-42 -28.5t-52 -9q-21 0 -40.5 6.5t-34.5 21t-24 38t-9 56.5v280h-90v-702z" />
    <glyph glyph-name="ordfeminine" unicode="&#xbb;" horiz-adv-x="337" 
d="M308 425v196q0 19 -5 37t-19 31.5t-40.5 22t-70.5 8.5q-33 0 -66 -10.5t-57 -31.5l35 -45q18 17 41 25t48 8q33 0 50.5 -14t17.5 -34v-10h-12q-28 0 -62 -2t-64 -12t-50 -31t-20 -58q0 -22 9 -38t24 -26.5t34 -16t39 -5.5q35 0 60.5 11t39.5 40l2 -1v-44h66zM242 560v-19
q0 -30 -20 -49t-62 -19q-23 0 -41.5 7.5t-18.5 28.5q0 19 14 29.5t35 15t45.5 5.5t45.5 1h2z" />
    <glyph glyph-name="ordmasculine" unicode="&#xbc;" horiz-adv-x="386" 
d="M193 720q-75 0 -119.5 -41t-44.5 -110t44.5 -109.5t119.5 -40.5t119.5 40.5t44.5 109.5t-44.5 110t-119.5 41zM193 660q45 0 68.5 -24.5t23.5 -66.5t-23.5 -66t-68.5 -24t-68.5 24t-23.5 66t23.5 66.5t68.5 24.5z" />
    <glyph glyph-name="ae" unicode="&#xbe;" horiz-adv-x="852" 
d="M813 246q0 30 -9 71.5t-33.5 79t-67.5 63.5t-111 26q-33 0 -58.5 -7t-45.5 -18t-35 -24.5t-27 -26.5q-28 42 -74.5 59t-95.5 17q-51 0 -101 -17.5t-88 -51.5l56 -57q32 26 62 40t72 14q59 0 89 -36t30 -87v-15h-140q-35 0 -70.5 -6.5t-63.5 -22t-45.5 -43t-17.5 -69.5
q0 -28 10.5 -55.5t33 -49t57 -35t82.5 -13.5q66 0 113.5 26t80.5 71q32 -54 80 -75.5t105 -21.5q65 0 110.5 25t87.5 73l-73 55q-18 -32 -49 -53.5t-74 -21.5q-34 0 -60.5 12t-45 31.5t-28 46t-9.5 54.5h353v42zM376 204v-14q0 -32 -12 -57t-31.5 -42.5t-45 -27t-53.5 -9.5
q-41 0 -70 23t-29 58t23.5 52t75.5 17h142zM460 276q0 27 8.5 51t25.5 42t41.5 28.5t55.5 10.5q34 0 57.5 -10.5t38.5 -28.5t22 -42t8 -51h-257z" />
    <glyph glyph-name="oslash" unicode="&#xbf;" horiz-adv-x="594" 
d="M171 135q-30 41 -30 102q0 36 11 66.5t31 52t49 34t65 12.5q32 0 57 -9t45 -26zM78 -32l69 69q32 -23 70 -36t80 -13q53 0 99 19.5t80 53.5t53.5 79t19.5 97q0 44 -14 83t-40 71l75 76l-36 36l-75 -75q-32 27 -73 42.5t-89 15.5q-53 0 -99 -19.5t-80 -53t-53.5 -79
t-19.5 -97.5q0 -48 17 -90.5t46 -74.5l-67 -68zM431 326q22 -37 22 -89q0 -36 -11 -66.5t-31 -52t-49 -34t-65 -12.5q-53 0 -89 27z" />
    <glyph glyph-name="questiondown" unicode="&#xc0;" horiz-adv-x="500" 
d="M194 288v-44q0 -21 -2 -34.5t-8 -25t-15.5 -22.5t-24.5 -26l-70 -71q-20 -20 -31 -51t-11 -69q0 -44 15.5 -78.5t42.5 -58t63.5 -36t78.5 -12.5q88 0 147.5 49.5t72.5 136.5l-102 10q-6 -50 -36.5 -81t-79.5 -31q-22 0 -41.5 8t-33.5 22t-22.5 33.5t-8.5 42.5
q0 22 8.5 41t21.5 35.5t29 32t32 30.5q20 19 33.5 32.5t21.5 28t12 32.5t4 45v61h-96zM309 426q0 27 -19.5 46.5t-46.5 19.5t-46.5 -19.5t-19.5 -46.5t19.5 -46.5t46.5 -19.5t46.5 19.5t19.5 46.5z" />
    <glyph glyph-name="exclamdown" unicode="&#xc1;" horiz-adv-x="278" 
d="M93 -222h96v504h-96v-504zM205 426q0 27 -19.5 46.5t-46.5 19.5t-46.5 -19.5t-19.5 -46.5t19.5 -46.5t46.5 -19.5t46.5 19.5t19.5 46.5z" />
    <glyph glyph-name="logicalnot" unicode="&#xc2;" horiz-adv-x="666" 
d="M600 420h-534v-78h456v-201h78v279z" />
    <glyph glyph-name="florin" unicode="&#xc4;" 
d="M449 425h-120l19 111q5 28 14 47t20.5 31t24.5 17t26 5q22 0 34.5 -3.5t23.5 -11.5l40 75q-23 13 -54 18.5t-63 5.5q-57 0 -98 -42.5t-55 -111.5l-27 -141h-122v-72h108l-63 -324q-3 -14 -7 -30t-12.5 -29t-22 -21.5t-35.5 -8.5t-54 12l-38 -71q21 -11 44.5 -18t52.5 -7
q61 0 103.5 35t53.5 94l73 368h134v72z" />
    <glyph glyph-name="guillemotleft" unicode="&#xc7;" horiz-adv-x="500" 
d="M193 27l62 41l-118 175l117 175l-62 41l-145 -216zM391 27l62 41l-118 175l117 175l-62 41l-145 -216z" />
    <glyph glyph-name="guillemotright" unicode="&#xc8;" horiz-adv-x="500" 
d="M307 459l-62 -41l118 -175l-117 -175l62 -41l145 216zM109 459l-62 -41l118 -175l-117 -175l62 -41l145 216z" />
    <glyph glyph-name="ellipsis" unicode="&#xc9;" horiz-adv-x="1000" 
d="M167 -6q27 0 46.5 19.5t19.5 46.5t-19.5 46.5t-46.5 19.5t-46.5 -19.5t-19.5 -46.5t19.5 -46.5t46.5 -19.5zM500 -6q27 0 46.5 19.5t19.5 46.5t-19.5 46.5t-46.5 19.5t-46.5 -19.5t-19.5 -46.5t19.5 -46.5t46.5 -19.5zM833 -6q27 0 46.5 19.5t19.5 46.5t-19.5 46.5
t-46.5 19.5t-46.5 -19.5t-19.5 -46.5t19.5 -46.5t46.5 -19.5z" />
    <glyph glyph-name="Agrave" unicode="&#xcb;" horiz-adv-x="704" 
d="M1 0h112l70 175h337l71 -175h112l-303 708h-87zM217 259l134 325h2l132 -325h-268zM314 892h-128l149 -144h83z" />
    <glyph glyph-name="Atilde" unicode="&#xcc;" horiz-adv-x="704" 
d="M1 0h112l70 175h337l71 -175h112l-303 708h-87zM217 259l134 325h2l132 -325h-268zM232 760q5 17 16.5 30.5t30.5 13.5q17 0 34 -6.5t32 -12.5q19 -8 39.5 -14.5t41.5 -6.5q22 0 38.5 9t27.5 24t18 33.5t10 37.5h-48q-5 -18 -17 -31t-32 -13q-16 0 -27.5 5.5t-26.5 11.5
q-20 8 -40.5 15.5t-43.5 7.5q-22 0 -39.5 -9t-30 -23.5t-20.5 -33t-11 -38.5h48z" />
    <glyph glyph-name="Otilde" unicode="&#xcd;" horiz-adv-x="832" 
d="M416 -18q81 0 149 28.5t116.5 78.5t76 118t27.5 147t-27.5 147t-76 118t-116.5 78.5t-149 28.5t-149 -28.5t-116.5 -78.5t-76 -118t-27.5 -147t27.5 -147t76 -118t116.5 -78.5t149 -28.5zM416 72q-61 0 -110 22.5t-84 60.5t-54 89.5t-19 109.5t19 109.5t54 89.5t84 60.5
t110 22.5t110 -22.5t84 -60.5t54 -89.5t19 -109.5t-19 -109.5t-54 -89.5t-84 -60.5t-110 -22.5zM296 760q5 17 16.5 30.5t30.5 13.5q17 0 34 -6.5t32 -12.5q19 -8 39.5 -14.5t41.5 -6.5q22 0 38.5 9t27.5 24t18 33.5t10 37.5h-48q-5 -18 -17 -31t-32 -13q-16 0 -27.5 5.5
t-26.5 11.5q-20 8 -40.5 15.5t-43.5 7.5q-22 0 -39.5 -9t-30 -23.5t-20.5 -33t-11 -38.5h48z" />
    <glyph glyph-name="OE" unicode="&#xce;" horiz-adv-x="981" 
d="M923 90h-306v227h276v90h-276v211h294v90h-444q-96 0 -171.5 -25t-128.5 -71.5t-81 -112t-28 -145.5q0 -77 27 -142t79.5 -112t128.5 -73.5t174 -26.5h456v90zM521 90h-61q-73 0 -129.5 20t-94 55.5t-57 84t-19.5 104.5q0 53 19.5 101t57 84t94 57.5t129.5 21.5h61v-528z
" />
    <glyph glyph-name="oe" unicode="&#xcf;" horiz-adv-x="926" 
d="M794 135q-20 -32 -50 -50.5t-73 -18.5q-38 0 -65 11.5t-44.5 31t-25.5 44.5t-8 51h359v44q0 53 -16 96.5t-45 75t-70 49t-92 17.5q-37 0 -66.5 -8.5t-52 -21.5t-39.5 -29t-29 -32q-36 47 -83 69t-109 22q-55 0 -100 -19t-77.5 -52t-50.5 -78.5t-18 -99.5q0 -53 16 -98.5
t47 -79t76 -52.5t102 -19q46 0 79 9.5t55.5 23.5t37 30t23.5 29q30 -49 83 -70.5t111 -21.5q131 0 199 98zM528 276q0 22 9 46.5t26 44.5t42 33.5t57 13.5t56 -12t40 -31.5t24 -44.5t9 -50h-263zM438 237q0 -32 -7.5 -63t-25.5 -55t-48.5 -38.5t-76.5 -14.5q-35 0 -62 13.5
t-45.5 37t-28 54.5t-9.5 66q0 36 9.5 67t28.5 54t48 36.5t67 13.5q40 0 68.5 -14.5t46.5 -38.5t26.5 -55t8.5 -63z" />
    <glyph glyph-name="endash" unicode="&#xd0;" horiz-adv-x="500" 
d="M500 282h-500v-78h500v78z" />
    <glyph glyph-name="emdash" unicode="&#xd1;" horiz-adv-x="1000" 
d="M1000 282h-1000v-78h1000v78z" />
    <glyph glyph-name="quotedblleft" unicode="&#xd2;" horiz-adv-x="519" 
d="M254 708h-82l-84 -246h97zM431 708h-82l-84 -246h97z" />
    <glyph glyph-name="quotedblright" unicode="&#xd3;" horiz-adv-x="519" 
d="M254 708h-97l-69 -246h82zM431 708h-97l-69 -246h82z" />
    <glyph glyph-name="quoteleft" unicode="&#xd4;" horiz-adv-x="278" 
d="M56 462h97l69 246h-82z" />
    <glyph glyph-name="quoteright" unicode="&#xd5;" horiz-adv-x="278" 
d="M222 708h-97l-69 -246h82z" />
    <glyph glyph-name="divide" unicode="&#xd6;" horiz-adv-x="666" 
d="M66 341v-78h534v78h-534zM267 470q0 -27 19.5 -46.5t46.5 -19.5t46.5 19.5t19.5 46.5t-19.5 46.5t-46.5 19.5t-46.5 -19.5t-19.5 -46.5zM267 134q0 -27 19.5 -46.5t46.5 -19.5t46.5 19.5t19.5 46.5t-19.5 46.5t-46.5 19.5t-46.5 -19.5t-19.5 -46.5z" />
    <glyph glyph-name="ydieresis" unicode="&#xd8;" horiz-adv-x="500" 
d="M208 -3l-29 -75q-7 -18 -14 -32t-17.5 -24.5t-25 -16t-35.5 -5.5q-27 0 -54 11l-11 -82q19 -8 39.5 -10.5t40.5 -2.5q37 0 62.5 10t43.5 28t31 43.5t25 56.5l225 576h-97l-134 -370h-2l-141 370h-104zM148 714q-23 0 -42.5 -16t-19.5 -41q0 -27 17.5 -45t44.5 -18
t44.5 18t17.5 45q0 25 -19.5 41t-42.5 16zM352 714q-23 0 -42.5 -16t-19.5 -41q0 -27 17.5 -45t44.5 -18t44.5 18t17.5 45q0 25 -19.5 41t-42.5 16z" />
    <glyph glyph-name="Ydieresis" unicode="&#xd9;" horiz-adv-x="612" 
d="M258 0h96v302l268 406h-117l-199 -311l-193 311h-123l268 -406v-302zM204 898q-23 0 -42.5 -16t-19.5 -41q0 -27 17.5 -45t44.5 -18t44.5 18t17.5 45q0 25 -19.5 41t-42.5 16zM408 898q-23 0 -42.5 -16t-19.5 -41q0 -27 17.5 -45t44.5 -18t44.5 18t17.5 45q0 25 -19.5 41
t-42.5 16z" />
    <glyph glyph-name="fraction" unicode="&#xda;" horiz-adv-x="167" 
d="M333 708l-60 32l-439 -740l60 -32z" />
    <glyph glyph-name="currency" unicode="&#xdb;" 
d="M21 555l49 -49q-24 -33 -36.5 -71.5t-12.5 -79.5q0 -40 12.5 -79t36.5 -72l-49 -49l57 -57l49 49q69 -49 151 -49q41 0 79.5 12t71.5 37l49 -49l57 57l-49 49q25 34 37 72.5t12 78.5t-12 78.5t-37 72.5l49 49l-57 56l-49 -48q-35 25 -73.5 37t-77.5 12t-77.5 -12
t-73.5 -37l-49 48zM99 355q0 37 14 69.5t38.5 57t57 38.5t69.5 14t69.5 -14t57 -38.5t38.5 -57t14 -69.5t-14 -69.5t-38.5 -57t-57 -38.5t-69.5 -14t-69.5 14t-57 38.5t-38.5 57t-14 69.5z" />
    <glyph glyph-name="guilsinglleft" unicode="&#xdc;" horiz-adv-x="315" 
d="M200 27l62 41l-118 175l117 175l-62 41l-145 -216z" />
    <glyph glyph-name="guilsinglright" unicode="&#xdd;" horiz-adv-x="315" 
d="M116 27l145 216l-146 216l-62 -41l118 -175l-117 -175z" />
    <glyph glyph-name="fi" unicode="&#xde;" 
d="M390 0h90v474h-90v-474zM370 643q0 -27 19.5 -46.5t46.5 -19.5t46.5 19.5t19.5 46.5t-19.5 46.5t-46.5 19.5t-46.5 -19.5t-19.5 -46.5zM103 0h90v396h108v78h-107v109q0 25 3 44.5t11 33.5t23 21.5t40 7.5q14 0 26 -2t25 -7l10 80q-19 5 -35.5 6t-31.5 1
q-89 0 -125.5 -46.5t-36.5 -141.5v-106h-102v-78h102v-396z" />
    <glyph glyph-name="fl" unicode="&#xdf;" 
d="M391 0h90v756h-90v-756zM103 0h90v396h108v78h-107v109q0 25 3 44.5t11 33.5t23 21.5t40 7.5q14 0 26 -2t25 -7l10 80q-19 5 -35.5 6t-31.5 1q-89 0 -125.5 -46.5t-36.5 -141.5v-106h-102v-78h102v-396z" />
    <glyph glyph-name="daggerdbl" unicode="&#xe0;" 
d="M233 -126h90v192h192v78h-192v306h192v78h-192v180h-90v-180h-192v-78h192v-306h-192v-78h192v-192z" />
    <glyph glyph-name="periodcentered" unicode="&#xe1;" horiz-adv-x="278" 
d="M73 303q0 -27 19.5 -46.5t46.5 -19.5t46.5 19.5t19.5 46.5t-19.5 46.5t-46.5 19.5t-46.5 -19.5t-19.5 -46.5z" />
    <glyph glyph-name="quotesinglbase" unicode="&#xe2;" horiz-adv-x="278" 
d="M222 114h-97l-69 -246h82z" />
    <glyph glyph-name="quotedblbase" unicode="&#xe3;" horiz-adv-x="519" 
d="M254 114h-97l-69 -246h82zM431 114h-97l-69 -246h82z" />
    <glyph glyph-name="perthousand" unicode="&#xe4;" horiz-adv-x="1056" 
d="M507 -18q34 0 63.5 13t51.5 35t35 51.5t13 63.5t-13 63.5t-35 51.5t-51.5 34.5t-63.5 12.5t-63.5 -12.5t-51.5 -34.5t-34.5 -51.5t-12.5 -63.5t12.5 -63.5t34.5 -51.5t51.5 -35t63.5 -13zM507 54q-38 0 -64 26.5t-26 64.5t26 64t64 26t64.5 -26t26.5 -64t-26.5 -64.5
t-64.5 -26.5zM711 145q0 -34 12.5 -63.5t34.5 -51.5t51.5 -35t63.5 -13t63.5 13t51.5 35t35 51.5t13 63.5t-13 63.5t-35 51.5t-51.5 34.5t-63.5 12.5t-63.5 -12.5t-51.5 -34.5t-34.5 -51.5t-12.5 -63.5zM873 54q-38 0 -64 26.5t-26 64.5t26 64t64 26t64.5 -26t26.5 -64
t-26.5 -64.5t-64.5 -26.5zM598 710l-60 30l-445 -740l62 -31zM20 558q0 -34 12.5 -63.5t34.5 -51.5t51.5 -35t63.5 -13t63.5 13t51.5 35t35 51.5t13 63.5t-13 63.5t-35 51.5t-51.5 34.5t-63.5 12.5t-63.5 -12.5t-51.5 -34.5t-34.5 -51.5t-12.5 -63.5zM92 558q0 38 26 64
t64 26t64.5 -26t26.5 -64t-26.5 -64.5t-64.5 -26.5t-64 26.5t-26 64.5z" />
    <glyph glyph-name="Acircumflex" unicode="&#xe5;" horiz-adv-x="704" 
d="M1 0h112l70 175h337l71 -175h112l-303 708h-87zM217 259l134 325h2l132 -325h-268zM517 748l-112 144h-106l-112 -144h91l74 96l74 -96h91z" />
    <glyph glyph-name="Ecircumflex" unicode="&#xe6;" horiz-adv-x="611" 
d="M91 0h475v90h-379v227h336v90h-336v211h361v90h-457v-708zM471 748l-112 144h-106l-112 -144h91l74 96l74 -96h91z" />
    <glyph glyph-name="Aacute" unicode="&#xe7;" horiz-adv-x="704" 
d="M1 0h112l70 175h337l71 -175h112l-303 708h-87zM217 259l134 325h2l132 -325h-268zM286 748h83l149 144h-128z" />
    <glyph glyph-name="Edieresis" unicode="&#xe8;" horiz-adv-x="611" 
d="M91 0h475v90h-379v227h336v90h-336v211h361v90h-457v-708zM204 898q-23 0 -42.5 -16t-19.5 -41q0 -27 17.5 -45t44.5 -18t44.5 18t17.5 45q0 25 -19.5 41t-42.5 16zM408 898q-23 0 -42.5 -16t-19.5 -41q0 -27 17.5 -45t44.5 -18t44.5 18t17.5 45q0 25 -19.5 41t-42.5 16z
" />
    <glyph glyph-name="Egrave" unicode="&#xe9;" horiz-adv-x="611" 
d="M91 0h475v90h-379v227h336v90h-336v211h361v90h-457v-708zM268 892h-128l149 -144h83z" />
    <glyph glyph-name="Iacute" unicode="&#xea;" horiz-adv-x="278" 
d="M91 0h96v708h-96v-708zM73 748h83l149 144h-128z" />
    <glyph glyph-name="Icircumflex" unicode="&#xeb;" horiz-adv-x="278" 
d="M91 0h96v708h-96v-708zM304 748l-112 144h-106l-112 -144h91l74 96l74 -96h91z" />
    <glyph glyph-name="Idieresis" unicode="&#xec;" horiz-adv-x="278" 
d="M91 0h96v708h-96v-708zM37 898q-23 0 -42.5 -16t-19.5 -41q0 -27 17.5 -45t44.5 -18t44.5 18t17.5 45q0 25 -19.5 41t-42.5 16zM241 898q-23 0 -42.5 -16t-19.5 -41q0 -27 17.5 -45t44.5 -18t44.5 18t17.5 45q0 25 -19.5 41t-42.5 16z" />
    <glyph glyph-name="Igrave" unicode="&#xed;" horiz-adv-x="278" 
d="M91 0h96v708h-96v-708zM101 892h-128l149 -144h83z" />
    <glyph glyph-name="Oacute" unicode="&#xee;" horiz-adv-x="832" 
d="M416 -18q81 0 149 28.5t116.5 78.5t76 118t27.5 147t-27.5 147t-76 118t-116.5 78.5t-149 28.5t-149 -28.5t-116.5 -78.5t-76 -118t-27.5 -147t27.5 -147t76 -118t116.5 -78.5t149 -28.5zM416 72q-61 0 -110 22.5t-84 60.5t-54 89.5t-19 109.5t19 109.5t54 89.5t84 60.5
t110 22.5t110 -22.5t84 -60.5t54 -89.5t19 -109.5t-19 -109.5t-54 -89.5t-84 -60.5t-110 -22.5zM350 748h83l149 144h-128z" />
    <glyph glyph-name="Ocircumflex" unicode="&#xef;" horiz-adv-x="832" 
d="M416 -18q81 0 149 28.5t116.5 78.5t76 118t27.5 147t-27.5 147t-76 118t-116.5 78.5t-149 28.5t-149 -28.5t-116.5 -78.5t-76 -118t-27.5 -147t27.5 -147t76 -118t116.5 -78.5t149 -28.5zM416 72q-61 0 -110 22.5t-84 60.5t-54 89.5t-19 109.5t19 109.5t54 89.5t84 60.5
t110 22.5t110 -22.5t84 -60.5t54 -89.5t19 -109.5t-19 -109.5t-54 -89.5t-84 -60.5t-110 -22.5zM581 748l-112 144h-106l-112 -144h91l74 96l74 -96h91z" />
    <glyph glyph-name="Ograve" unicode="&#xf1;" horiz-adv-x="832" 
d="M416 -18q81 0 149 28.5t116.5 78.5t76 118t27.5 147t-27.5 147t-76 118t-116.5 78.5t-149 28.5t-149 -28.5t-116.5 -78.5t-76 -118t-27.5 -147t27.5 -147t76 -118t116.5 -78.5t149 -28.5zM416 72q-61 0 -110 22.5t-84 60.5t-54 89.5t-19 109.5t19 109.5t54 89.5t84 60.5
t110 22.5t110 -22.5t84 -60.5t54 -89.5t19 -109.5t-19 -109.5t-54 -89.5t-84 -60.5t-110 -22.5zM378 892h-128l149 -144h83z" />
    <glyph glyph-name="Uacute" unicode="&#xf2;" horiz-adv-x="704" 
d="M78 708v-449q0 -61 21 -112t58 -88t87 -57t108 -20t108 20t87 57t58 88t21 112v449h-96v-434q0 -33 -9 -68.5t-30 -65.5t-55 -49t-84 -19t-84 19t-55 49t-30 65.5t-9 68.5v434h-96zM286 748h83l149 144h-128z" />
    <glyph glyph-name="Ucircumflex" unicode="&#xf3;" horiz-adv-x="704" 
d="M78 708v-449q0 -61 21 -112t58 -88t87 -57t108 -20t108 20t87 57t58 88t21 112v449h-96v-434q0 -33 -9 -68.5t-30 -65.5t-55 -49t-84 -19t-84 19t-55 49t-30 65.5t-9 68.5v434h-96zM517 748l-112 144h-106l-112 -144h91l74 96l74 -96h91z" />
    <glyph glyph-name="Ugrave" unicode="&#xf4;" horiz-adv-x="704" 
d="M78 708v-449q0 -61 21 -112t58 -88t87 -57t108 -20t108 20t87 57t58 88t21 112v449h-96v-434q0 -33 -9 -68.5t-30 -65.5t-55 -49t-84 -19t-84 19t-55 49t-30 65.5t-9 68.5v434h-96zM314 892h-128l149 -144h83z" />
    <glyph glyph-name="dotlessi" unicode="&#xf5;" horiz-adv-x="240" 
d="M75 0h90v474h-90v-474z" />
    <glyph glyph-name="circumflex" unicode="&#xf6;" horiz-adv-x="240" 
d="M285 564l-112 144h-106l-112 -144h91l74 96l74 -96h91z" />
    <glyph glyph-name="tilde" unicode="&#xf7;" horiz-adv-x="240" 
d="M0 576q5 17 16.5 30.5t30.5 13.5q17 0 34 -6.5t32 -12.5q19 -8 39.5 -14.5t41.5 -6.5q22 0 38.5 9t27.5 24t18 33.5t10 37.5h-48q-5 -18 -17 -31t-32 -13q-16 0 -27.5 5.5t-26.5 11.5q-20 8 -40.5 15.5t-43.5 7.5q-22 0 -39.5 -9t-30 -23.5t-20.5 -33t-11 -38.5h48z" />
    <glyph glyph-name="macron" unicode="&#xf8;" horiz-adv-x="240" 
d="M264 666h-288v-66h288v66z" />
    <glyph glyph-name="breve" unicode="&#xf9;" horiz-adv-x="240" 
d="M-37 702q5 -69 48 -103.5t109 -34.5t109 34.5t48 103.5h-53q-7 -38 -36.5 -55t-66.5 -17t-66.5 17t-36.5 55h-55z" />
    <glyph glyph-name="dotaccent" unicode="&#xfa;" horiz-adv-x="240" 
d="M120 594q27 0 44.5 18t17.5 45q0 25 -19.5 41t-42.5 16t-42.5 -16t-19.5 -41q0 -27 17.5 -45t44.5 -18z" />
    <glyph glyph-name="ring" unicode="&#xfb;" horiz-adv-x="240" 
d="M18 651q0 -21 8.5 -38.5t22.5 -31t32.5 -21t38.5 -7.5q21 0 39.5 7.5t32.5 21t22 31.5t8 39t-8 38.5t-22 31t-32.5 21t-39.5 7.5q-20 0 -38.5 -7.5t-32.5 -21t-22.5 -31.5t-8.5 -39zM180 651q0 -24 -18.5 -40t-41.5 -16t-41.5 16t-18.5 40q0 25 18 41t42 16t42 -16
t18 -41z" />
    <glyph glyph-name="cedilla" unicode="&#xfc;" horiz-adv-x="240" 
d="M5 -205q25 -12 51.5 -17.5t53.5 -5.5q21 0 43.5 5t40.5 16t29.5 29t11.5 45q0 19 -8 32.5t-21 22.5t-29.5 13t-33.5 4h-29l44 61h-49l-61 -87l21 -18q14 4 30.5 6.5t30.5 0t23.5 -11.5t9.5 -28q0 -13 -6 -21t-15.5 -12.5t-20 -6.5t-19.5 -2q-40 0 -78 15z" />
    <glyph glyph-name="hungarumlaut" unicode="&#xfd;" horiz-adv-x="240" 
d="M-50 564h82l149 144h-127zM119 564h82l149 144h-127z" />
    <glyph glyph-name="ogonek" unicode="&#xfe;" horiz-adv-x="240" 
d="M193 -142q-10 -8 -22 -13.5t-25 -5.5q-18 0 -32.5 9.5t-16.5 33.5q0 16 7.5 33.5t19 34.5t24.5 31.5t24 25.5h-54q-16 -12 -32.5 -28t-30 -34.5t-22 -39t-8.5 -41.5q2 -42 31 -63.5t68 -21.5q23 0 47 8.5t44 26.5z" />
    <glyph glyph-name="caron" unicode="&#xff;" horiz-adv-x="240" 
d="M67 564h106l112 144h-91l-74 -96l-78 96h-87z" />
  </font>
</defs>
</svg>
