<?xml version="1.0" standalone="no"?>
<!DOCTYPE svg PUBLIC "-//W3C//DTD SVG 1.1//EN" "http://www.w3.org/Graphics/SVG/1.1/DTD/svg11.dtd" >
<svg>
<metadata>
Created by FontForge 20120731 at Sat Aug 24 10:30:05 2019
 By www-data
Copyright (c) 1989, 1995 Adobe Systems Incorporated.  All Rights Reserved.Avenir is a trademark of Linotype-Hell AG and/or its subsidiaries.
</metadata>
<defs>
<font id="Avenir95-Black" horiz-adv-x="592" >
  <font-face 
    font-family="Avenir95-Black"
    font-weight="900"
    font-stretch="normal"
    units-per-em="1000"
    panose-1="2 11 10 0 0 0 0 0 0 0"
    ascent="800"
    descent="-200"
    x-height="486"
    cap-height="708"
    bbox="-73 -250 1135 953"
    underline-thickness="50"
    underline-position="-50"
    unicode-range="U+0020-2122"
  />
<missing-glyph horiz-adv-x="502" 
d="M-1 0h500v500h-500v-500zM9 10v480h480v-480h-480z" />
    <glyph glyph-name=".notdef" horiz-adv-x="502" 
d="M-1 0h500v500h-500v-500zM9 10v480h480v-480h-480z" />
    <glyph glyph-name="space" unicode=" " horiz-adv-x="296" 
 />
    <glyph glyph-name="exclam" unicode="!" horiz-adv-x="444" 
d="M297 708h-150v-474h150v474zM130 86q0 -38 27 -65t65 -27t65 27t27 65t-27 65t-65 27t-65 -27t-27 -65z" />
    <glyph glyph-name="quotedbl" unicode="&#x22;" horiz-adv-x="520" 
d="M313 426h126v282h-126v-282zM81 426h126v282h-126v-282z" />
    <glyph glyph-name="numbersign" unicode="#" 
d="M101 0h97l28 201h99l-28 -201h97l28 201h96v90h-84l17 126h96v90h-84l28 201h-97l-28 -201h-99l28 201h-97l-28 -201h-96v-90h84l-17 -126h-96v-90h84zM337 291h-99l17 126h99z" />
    <glyph glyph-name="dollar" unicode="$" 
d="M328 790h-66v-70q-45 -5 -86 -22t-73 -44.5t-50.5 -65.5t-18.5 -84q0 -74 38.5 -118t116.5 -69l73 -22v-169q-45 3 -80.5 17.5t-60.5 44.5l-106 -119q47 -42 111 -61.5t136 -19.5v-70h66v70q105 10 173 68t68 158q0 68 -38.5 114.5t-106.5 66.5l-96 28v159q35 -2 65 -12
t53 -30l96 117q-41 32 -98 47.5t-116 15.5v70zM262 439q-2 1 -8 3q-27 7 -45.5 21t-18.5 48q0 29 20 45t52 23v-140zM328 278l19 -7q33 -12 49.5 -26t16.5 -43q0 -31 -24 -49t-61 -25v150z" />
    <glyph glyph-name="percent" unicode="%" horiz-adv-x="907" 
d="M508 187q0 -41 15.5 -77t42.5 -63.5t63 -43t76 -15.5t76 15.5t63.5 43t42.5 63.5t15 77t-15 77t-42.5 63.5t-63.5 42.5t-76 15t-76 -15t-63.5 -42.5t-42.5 -63.5t-15 -77zM800 187q0 -41 -27.5 -69t-67.5 -28t-67.5 28t-27.5 69q0 40 27.5 68t67.5 28t67.5 -28t27.5 -68z
M5 522q0 -41 15 -77t42.5 -63t63.5 -42.5t76 -15.5t76 15.5t63.5 42.5t42.5 63t15 77t-15 77t-42.5 63.5t-63.5 42.5t-76 15t-76 -15t-63.5 -42.5t-42.5 -63.5t-15 -77zM297 522q0 -40 -27.5 -68t-67.5 -28t-67.5 28t-27.5 68t27.5 68t67.5 28t67.5 -28t27.5 -68zM210 11
l76 -43l413 725l-84 47z" />
    <glyph glyph-name="ampersand" unicode="&#x26;" horiz-adv-x="759" 
d="M744 365h-174l-69 -94l-91 97q58 30 94.5 77.5t36.5 106.5q0 85 -59 129.5t-147 44.5q-44 0 -83.5 -10.5t-70.5 -32.5t-49 -56.5t-18 -80.5q0 -48 18.5 -81.5t59.5 -77.5q-65 -22 -107.5 -74.5t-42.5 -118.5q0 -51 20.5 -91.5t56 -67t80.5 -40t94 -13.5q64 0 114.5 20.5
t93.5 64.5l59 -67h193l-158 167zM333 606q30 0 50 -17t20 -47q0 -26 -23.5 -49t-56.5 -42v0q-27 25 -43 45.5t-16 43.5q0 30 19.5 48t49.5 18zM410 166q-29 -26 -54 -39t-57 -13q-38 0 -66.5 24.5t-28.5 62.5q0 34 19.5 55t57.5 44l4 2z" />
    <glyph glyph-name="quotesingle" unicode="'" horiz-adv-x="296" 
d="M85 426h126v282h-126v-282z" />
    <glyph glyph-name="parenleft" unicode="(" horiz-adv-x="314" 
d="M190 732l-2 -4q-71 -105 -107.5 -212.5t-36.5 -227.5q0 -119 36.5 -227t107.5 -213l2 -4l103 60q-67 105 -98 190t-31 194t31 194t98 190z" />
    <glyph glyph-name="parenright" unicode=")" horiz-adv-x="314" 
d="M124 -156l2 4q71 105 107.5 213t36.5 227q0 120 -36.5 227.5t-107.5 212.5l-2 4l-103 -60q67 -105 98 -190t31 -194t-31 -194t-98 -190z" />
    <glyph glyph-name="asterisk" unicode="*" horiz-adv-x="482" 
d="M293 708h-102v-138l-131 47l-32 -95l133 -46l-84 -109l81 -61l81 110l84 -115l83 61l-83 114l131 42l-30 95l-131 -43v138z" />
    <glyph glyph-name="plus" unicode="+" horiz-adv-x="666" 
d="M59 240h211v-211h126v211h211v126h-211v211h-126v-211h-211v-126z" />
    <glyph glyph-name="comma" unicode="," horiz-adv-x="296" 
d="M17 -120h128l90 282h-144z" />
    <glyph glyph-name="hyphen" unicode="-" horiz-adv-x="296" 
d="M271 309h-246v-120h246v120z" />
    <glyph glyph-name="period" unicode="." horiz-adv-x="296" 
d="M56 86q0 -38 27 -65t65 -27t65 27t27 65t-27 65t-65 27t-65 -27t-27 -65z" />
    <glyph glyph-name="slash" unicode="/" horiz-adv-x="407" 
d="M-3 -18l113 -35l300 779l-114 35z" />
    <glyph glyph-name="zero" unicode="0" 
d="M33 354q0 -69 12.5 -132.5t42 -116.5t81.5 -85t127 -32t127 32t81.5 85t42 116.5t12.5 132.5t-12.5 133t-42 116.5t-81.5 84.5t-127 32t-127 -32t-81.5 -85t-42 -116.5t-12.5 -132.5zM183 354q0 40 3 75t14 70.5t34.5 59t61.5 23.5t61.5 -23.5t34.5 -59t14 -70.5t3 -75
t-3 -75t-14 -70.5t-34.5 -59t-61.5 -23.5t-61.5 23.5t-34.5 59t-14 70.5t-3 75z" />
    <glyph glyph-name="one" unicode="1" 
d="M288 0h144v708h-140l-231 -195l85 -98l142 125v-540z" />
    <glyph glyph-name="two" unicode="2" 
d="M49 0h494v132h-314l215 185q46 40 69.5 83.5t23.5 106.5q0 103 -64 158t-165 55q-108 0 -175.5 -55.5t-74.5 -161.5l150 -11q3 40 27.5 65t64.5 25q36 0 61.5 -21t25.5 -56q0 -27 -15 -48t-44 -47l-4 -4l-275 -247v-159z" />
    <glyph glyph-name="three" unicode="3" 
d="M216 299h35q32 0 54.5 -2t42 -9.5t31.5 -24.5t12 -46q0 -41 -24.5 -66t-71.5 -25q-46 0 -71.5 21.5t-33.5 60.5l-158 -37q21 -92 88 -137.5t166 -45.5q110 0 182.5 55t72.5 157q0 64 -35.5 110.5t-97.5 54.5v3q58 12 89.5 53.5t31.5 101.5q0 50 -19 87t-52.5 61.5
t-76.5 36.5t-91 12q-96 0 -163 -41t-89 -129l165 -34q7 29 30.5 47.5t57.5 18.5q37 0 62.5 -21t25.5 -53q0 -24 -9.5 -39.5t-25.5 -24t-35.5 -12t-43.5 -3.5h-49v-130z" />
    <glyph glyph-name="four" unicode="4" 
d="M333 0h144v142h91v126h-91v440h-164l-289 -440v-126h309v-142zM333 268h-159l157 244h2v-244z" />
    <glyph glyph-name="five" unicode="5" 
d="M517 708h-428l-8 -391q76 26 147 26q32 0 60.5 -5.5t51.5 -18.5t37 -36.5t14 -56.5q0 -46 -29 -76t-76 -30q-39 0 -65 23t-32 62l-157 -36q23 -89 84.5 -135t154.5 -46q119 0 193 67q37 33 57 80t20 106q0 107 -68 170.5t-177 63.5q-40 0 -63 -8l3 109h281v132z" />
    <glyph glyph-name="six" unicode="6" 
d="M453 708h-183l-155 -242l-1 -2q-43 -68 -63.5 -116.5t-20.5 -116.5q0 -54 20 -99t56 -77t84.5 -49.5t103.5 -17.5t103.5 17.5t84.5 49.5t56 77t20 99q0 48 -16 90.5t-45.5 74t-70.5 49t-90 17.5q-21 0 -49 -7zM408 237q0 -48 -32 -79.5t-82 -31.5t-82 31.5t-32 79.5
t32 79.5t82 31.5t82 -31.5t32 -79.5z" />
    <glyph glyph-name="seven" unicode="7" 
d="M97 0h175l283 576v132h-518v-138h350z" />
    <glyph glyph-name="eight" unicode="8" 
d="M59 525q0 -58 31.5 -99t88.5 -58v-2q-64 -17 -98 -61.5t-34 -110.5q0 -50 20 -89t54.5 -65t79.5 -39t95 -13t95 13t79.5 39.5t54.5 65t20 88.5q0 66 -34 110.5t-98 61.5v2q57 17 88.5 58t31.5 99q0 93 -67 144t-170 51t-170 -51t-67 -144zM209 504q0 33 24.5 55.5
t62.5 22.5t62.5 -22.5t24.5 -55.5q0 -34 -24.5 -56.5t-62.5 -22.5t-62.5 22.5t-24.5 56.5zM197 215q0 38 28 64t71 26q44 0 71.5 -26t27.5 -64q0 -37 -28 -63t-71 -26t-71 26t-28 63z" />
    <glyph glyph-name="nine" unicode="9" 
d="M139 0h183l155 242l1 2q43 68 63.5 116.5t20.5 116.5q0 54 -20 99t-56 77t-84.5 49.5t-103.5 17.5t-103.5 -17.5t-84.5 -49.5t-56 -77t-20 -99q0 -48 16 -90.5t45.5 -74t70.5 -49t90 -17.5q21 0 49 7zM184 471q0 48 32 79.5t82 31.5t82 -31.5t32 -79.5t-32 -79.5
t-82 -31.5t-82 31.5t-32 79.5z" />
    <glyph glyph-name="colon" unicode=":" horiz-adv-x="296" 
d="M56 86q0 -38 27 -65t65 -27t65 27t27 65t-27 65t-65 27t-65 -27t-27 -65zM56 406q0 -38 27 -65t65 -27t65 27t27 65t-27 65t-65 27t-65 -27t-27 -65z" />
    <glyph glyph-name="semicolon" unicode=";" horiz-adv-x="296" 
d="M17 -120h128l90 282h-144zM56 406q0 -38 27 -65t65 -27t65 27t27 65t-27 65t-65 27t-65 -27t-27 -65z" />
    <glyph glyph-name="less" unicode="&#x3c;" horiz-adv-x="666" 
d="M586 564l-506 -198v-126l506 -198v136l-317 124v2l317 124v136z" />
    <glyph glyph-name="equal" unicode="=" horiz-adv-x="666" 
d="M59 336h548v126h-548v-126zM59 144h548v126h-548v-126z" />
    <glyph glyph-name="greater" unicode="&#x3e;" horiz-adv-x="666" 
d="M80 42l506 198v126l-506 198v-136l317 -124v-2l-317 -124v-136z" />
    <glyph glyph-name="question" unicode="?" horiz-adv-x="556" 
d="M216 234h150v29q0 18 8.5 35t30.5 34q71 56 97.5 98t26.5 99q0 93 -64.5 145t-160.5 52q-106 0 -173 -56.5t-77 -160.5l154 -10q3 39 29 64t70 25q32 0 52 -19t20 -51q0 -24 -17 -44.5t-60 -58.5q-31 -28 -51 -47q-19 -18 -27 -39t-8 -51v-44zM199 86q0 -38 27 -65
t65 -27t65 27t27 65t-27 65t-65 27t-65 -27t-27 -65z" />
    <glyph glyph-name="at" unicode="@" horiz-adv-x="800" 
d="M475 364q0 -23 -5 -44t-17 -38.5t-32.5 -28t-50.5 -10.5q-38 0 -53.5 25.5t-15.5 63.5q0 53 27.5 88.5t72.5 35.5q36 0 55 -25.5t19 -66.5zM605 534h-94l-8 -45h-2q-28 57 -108 57q-45 0 -82 -18t-63.5 -50t-40.5 -72.5t-14 -84.5q0 -74 40 -121t104 -47q43 0 74 15
t54 39h2q1 -22 20.5 -38t58.5 -16q29 0 65 9.5t72.5 35.5t60.5 75.5t24 123.5q0 76 -29.5 138t-80 104.5t-114 64.5t-130.5 22q-78 0 -147.5 -28t-122.5 -79t-82.5 -119.5t-29.5 -146.5q0 -80 30 -148t84 -118.5t124.5 -77.5t149.5 -27q93 0 174 39.5t133 111.5h-110
q-77 -61 -189 -61q-63 0 -117 19.5t-93.5 56t-61.5 89t-22 116.5q0 61 20 113t56.5 90t88 59t112.5 21q118 0 189.5 -63.5t71.5 -180.5q0 -73 -25.5 -111t-60.5 -38q-15 0 -21 7.5t-6 20.5t3 31t6 35z" />
    <glyph glyph-name="A" unicode="A" horiz-adv-x="741" 
d="M-1 0h172l59 150h275l61 -150h176l-308 708h-129zM452 282h-173l86 220z" />
    <glyph glyph-name="B" unicode="B" horiz-adv-x="648" 
d="M72 0h290q50 0 97 10.5t85.5 34t61 61.5t22.5 91q0 69 -42.5 116.5t-112.5 56.5v2q56 18 89 58t33 98q0 55 -22 91t-58.5 55.5t-81 26.5t-97.5 7h-264v-708zM228 576h106q44 0 74.5 -17t30.5 -57t-28.5 -58.5t-69.5 -18.5h-113v151zM228 293h118q22 0 43.5 -3t40 -11.5
t30.5 -24t12 -39.5q0 -43 -30.5 -63t-73.5 -20h-140v161z" />
    <glyph glyph-name="C" unicode="C" horiz-adv-x="685" 
d="M655 622q-42 54 -107 79t-132 25q-82 0 -152.5 -26t-122 -75t-79.5 -118t-28 -153t28 -153t79.5 -118t122 -75t152.5 -26q76 0 144.5 31t111.5 92l-130 97q-24 -36 -61.5 -56t-84.5 -20q-42 0 -78.5 17t-64 48t-42.5 72.5t-15 90.5t15 91t43 72.5t65.5 47.5t81.5 17
q85 0 134 -58z" />
    <glyph glyph-name="D" unicode="D" horiz-adv-x="759" 
d="M72 0h255q80 0 152 23t127.5 68t87 111.5t31.5 149.5q0 94 -32.5 162.5t-89.5 111t-132.5 62.5t-164.5 20h-234v-708zM228 564h92q105 0 174 -52.5t69 -151.5q0 -59 -18.5 -100.5t-53 -67t-80 -37t-102.5 -11.5h-81v420z" />
    <glyph glyph-name="E" unicode="E" horiz-adv-x="630" 
d="M78 0h499v144h-343v144h307v144h-307v132h325v144h-481v-708z" />
    <glyph glyph-name="F" unicode="F" horiz-adv-x="593" 
d="M78 0h156v276h295v144h-295v144h319v144h-475v-708z" />
    <glyph glyph-name="G" unicode="G" horiz-adv-x="778" 
d="M713 420h-277v-144h127v-115q-27 -15 -64 -25t-83 -10q-49 0 -90 17t-70 47.5t-44.5 72.5t-15.5 91t15.5 91t44.5 72.5t70 47.5t90 17q58 0 98.5 -16.5t73.5 -50.5l110 120q-51 48 -122.5 69.5t-159.5 21.5q-82 0 -152.5 -26t-122 -75t-79.5 -118t-28 -153t28 -153
t79.5 -118t122 -75t152.5 -26q81 0 155.5 16.5t141.5 51.5v370z" />
    <glyph glyph-name="H" unicode="H" horiz-adv-x="759" 
d="M72 0h156v306h303v-306h156v708h-156v-264h-303v264h-156v-708z" />
    <glyph glyph-name="I" unicode="I" horiz-adv-x="296" 
d="M70 0h156v708h-156v-708z" />
    <glyph glyph-name="J" unicode="J" horiz-adv-x="500" 
d="M438 708h-156v-454q0 -27 -1.5 -48t-8.5 -41t-22.5 -32.5t-41.5 -12.5q-25 0 -46 18t-24 44l-143 -35q17 -83 73.5 -124t143.5 -41q69 0 114 20.5t69.5 56t33.5 79.5t9 99v471z" />
    <glyph glyph-name="K" unicode="K" horiz-adv-x="722" 
d="M78 0h156v336l288 -336h218l-342 379l315 329h-204l-275 -294v294h-156v-708z" />
    <glyph glyph-name="L" unicode="L" horiz-adv-x="537" 
d="M78 0h445v144h-289v564h-156v-708z" />
    <glyph glyph-name="M" unicode="M" horiz-adv-x="944" 
d="M72 0h156v543h2l179 -543h119l186 543h2v-543h156v708h-235l-164 -462h-2l-163 462h-236v-708z" />
    <glyph glyph-name="N" unicode="N" horiz-adv-x="815" 
d="M72 0h156v504h2l309 -504h204v708h-156v-492h-2l-301 492h-212v-708z" />
    <glyph glyph-name="O" unicode="O" horiz-adv-x="832" 
d="M34 354q0 -84 28 -153t79.5 -118t122 -75t152.5 -26q83 0 153 26t121.5 75t79.5 118t28 153t-28 153t-79.5 118t-121.5 75t-153 26q-82 0 -152.5 -26t-122 -75t-79.5 -118t-28 -153zM196 354q0 49 15.5 91t44.5 72.5t70 47.5t90 17t90 -17t70 -47.5t44.5 -72.5t15.5 -91
t-15.5 -91t-44.5 -72.5t-70 -47.5t-90 -17t-90 17t-70 47.5t-44.5 72.5t-15.5 91z" />
    <glyph glyph-name="P" unicode="P" horiz-adv-x="630" 
d="M72 0h156v276h114q59 0 106 11t82 36t54.5 67.5t19.5 102.5q0 61 -20.5 103t-57.5 66.5t-85 35t-106 10.5h-263v-708zM228 576h80q26 0 49 -3t42 -11.5t31 -25.5t12 -43q0 -45 -31.5 -65t-78.5 -20h-104v168z" />
    <glyph glyph-name="Q" unicode="Q" horiz-adv-x="852" 
d="M847 120h-198v2q70 31 105.5 96.5t35.5 144.5q0 78 -29 145t-81 116t-121 75.5t-147 26.5t-147 -26.5t-121 -75t-81 -115.5t-29 -146q0 -84 28.5 -151.5t80.5 -115t122.5 -72t152.5 -24.5h429v120zM196 363q0 45 17 85t46.5 70t69 47t83.5 17t83.5 -17t69.5 -47t46.5 -70
t16.5 -85t-16.5 -85t-46.5 -70t-69.5 -47t-83.5 -17t-83.5 17t-69 47t-46.5 70t-17 85z" />
    <glyph glyph-name="R" unicode="R" horiz-adv-x="648" 
d="M72 0h156v283h77l148 -283h187l-180 299q73 13 113 65.5t40 128.5q0 60 -20.5 101.5t-57 66.5t-84 36t-105.5 11h-274v-708zM228 576h102q25 0 45.5 -3t37.5 -12t27.5 -25.5t10.5 -41.5q0 -27 -11.5 -43.5t-30.5 -24t-40 -9.5t-49 -2h-92v161z" />
    <glyph glyph-name="S" unicode="S" horiz-adv-x="574" 
d="M529 652q-43 38 -98.5 56t-118.5 18q-53 0 -101.5 -15t-86.5 -44t-60 -72.5t-22 -98.5q0 -48 17.5 -82t46.5 -55.5t60 -34t79 -28.5q66 -20 97.5 -39.5t31.5 -56.5q0 -35 -33 -54.5t-75 -19.5q-39 0 -75.5 18t-60.5 49l-111 -122q96 -89 238 -89q56 0 105.5 14.5t87 43.5
t59 73.5t21.5 101.5q0 51 -17.5 86.5t-46.5 57t-60 34t-78 26.5q-65 19 -94.5 36.5t-29.5 53.5t33 54.5t72 18.5q31 0 63 -12t50 -35z" />
    <glyph glyph-name="T" unicode="T" horiz-adv-x="574" 
d="M209 0h156v570h202v138h-560v-138h202v-570z" />
    <glyph glyph-name="U" unicode="U" horiz-adv-x="741" 
d="M669 708h-156v-429q0 -65 -40.5 -109t-101.5 -44q-62 0 -102.5 44t-40.5 109v429h-156v-435q0 -130 78 -210.5t221 -80.5t220.5 80.5t77.5 210.5v435z" />
    <glyph glyph-name="V" unicode="V" horiz-adv-x="704" 
d="M285 0h125l292 708h-167l-178 -464h-2l-175 464h-178z" />
    <glyph glyph-name="W" unicode="W" horiz-adv-x="1000" 
d="M208 0h134l156 490h2l156 -490h139l207 708h-158l-119 -466h-2l-147 466h-145l-148 -454h-2l-113 454h-170z" />
    <glyph glyph-name="X" unicode="X" horiz-adv-x="722" 
d="M0 0h185l168 285l173 -285h196l-256 373l229 335h-189l-145 -248l-151 248h-196l234 -338z" />
    <glyph glyph-name="Y" unicode="Y" horiz-adv-x="648" 
d="M246 0h156v302l266 406h-185l-159 -265l-150 265h-194l266 -406v-302z" />
    <glyph glyph-name="Z" unicode="Z" horiz-adv-x="630" 
d="M35 0h560v144h-364l352 426v138h-535v-138h346l-359 -426v-144z" />
    <glyph glyph-name="bracketleft" unicode="[" horiz-adv-x="296" 
d="M276 732h-210v-888h210v90h-90v708h90v90z" />
    <glyph glyph-name="backslash" unicode="\" horiz-adv-x="407" 
d="M410 -18l-299 779l-114 -35l300 -779z" />
    <glyph glyph-name="bracketright" unicode="]" horiz-adv-x="296" 
d="M20 -156h210v888h-210v-90h90v-708h-90v-90z" />
    <glyph glyph-name="asciicircum" unicode="^" horiz-adv-x="666" 
d="M80 343h141l112 238l111 -238h142l-180 365h-146z" />
    <glyph glyph-name="underscore" unicode="_" horiz-adv-x="500" 
d="M500 -125v50h-500v-50h500z" />
    <glyph glyph-name="grave" unicode="`" horiz-adv-x="260" 
d="M131 708h-204l173 -144h132z" />
    <glyph glyph-name="a" unicode="a" horiz-adv-x="537" 
d="M358 0h138v247q0 129 -48.5 190t-173.5 61q-61 0 -117.5 -20t-96.5 -58l80 -82q52 58 122 58q40 0 68 -24t28 -63q-65 0 -116 -4t-100.5 -20t-81 -52t-31.5 -95q0 -70 50.5 -110t122.5 -40q49 0 90 18t64 55h2v-61zM358 213v-32q0 -43 -33.5 -67t-80.5 -24
q-28 0 -49.5 14t-21.5 39q0 23 15.5 37.5t39 21.5t46.5 9t47 2h37z" />
    <glyph glyph-name="b" unicode="b" horiz-adv-x="630" 
d="M67 0h138v64h2q19 -30 60.5 -53t88.5 -23q53 0 97.5 18.5t76 52t48.5 79.5t17 101q0 51 -15.5 97.5t-44.5 83.5t-70.5 57.5t-91.5 20.5t-90 -15t-64 -49h-2v322h-150v-756zM205 243q0 56 32 89.5t88 33.5t88 -33.5t32 -89.5q0 -55 -32 -89t-88 -34t-88 34t-32 89z" />
    <glyph glyph-name="c" unicode="c" horiz-adv-x="482" 
d="M481 433q-33 33 -79 49t-94 16q-56 0 -105 -18t-86.5 -52t-58 -81t-20.5 -104t20.5 -104t58 -81t86.5 -52t105 -18q48 0 94 16t79 49l-99 104q-14 -17 -32.5 -27t-41.5 -10q-56 0 -88 34t-32 89q0 56 32 89.5t88 33.5q22 0 42 -10t32 -27z" />
    <glyph glyph-name="d" unicode="d" horiz-adv-x="630" 
d="M563 756h-150v-322h-2q-24 34 -64 49t-90 15t-91.5 -21t-70.5 -57.5t-44.5 -83t-15.5 -97.5q0 -55 17 -101t48.5 -79.5t76 -52t97.5 -18.5q47 0 88.5 23t60.5 53h2v-64h138v756zM425 243q0 -55 -32 -89t-88 -34t-88 34t-32 89q0 56 32 89.5t88 33.5t88 -33.5t32 -89.5z
" />
    <glyph glyph-name="e" unicode="e" horiz-adv-x="574" 
d="M408 161q-20 -28 -46 -43.5t-61 -15.5q-43 0 -73.5 25.5t-39.5 68.5h348v47q0 117 -61.5 186t-166.5 69q-56 0 -105 -18t-86.5 -52t-58 -81t-20.5 -104t20.5 -104t58 -81t86.5 -52t105 -18q60 0 114.5 25.5t90.5 70.5zM188 298q3 38 31 65t75 27q40 0 66 -26.5t26 -65.5
h-198z" />
    <glyph glyph-name="f" unicode="f" horiz-adv-x="370" 
d="M105 0h150v366h111v120h-111v77q0 46 17 62.5t55 16.5q21 0 49 -10l7 127q-36 9 -88 9q-59 0 -97 -15t-58 -41.5t-27.5 -61t-7.5 -78.5v-86h-99v-120h99v-366z" />
    <glyph glyph-name="g" unicode="g" horiz-adv-x="630" 
d="M563 486h-138v-64h-2q-20 30 -64 53t-102 23q-50 0 -91.5 -20.5t-70.5 -56.5t-44.5 -82t-15.5 -94q0 -55 17 -101t48.5 -79.5t76 -52t97.5 -18.5q38 0 75.5 15.5t61.5 48.5h2v-47q0 -54 -34 -86.5t-100 -32.5q-44 0 -83 16.5t-75 46.5l-83 -124q49 -39 110.5 -55
t133.5 -16q140 0 210.5 71.5t70.5 209.5v445zM185 246q0 48 35 84t85 36t85 -36t35 -84t-35 -84t-85 -36t-85 36t-35 84z" />
    <glyph glyph-name="h" unicode="h" horiz-adv-x="574" 
d="M53 756v-756h150v242q0 26 3.5 47.5t13 39t27.5 27.5t46 10q27 0 43.5 -11.5t24 -30t9 -38t1.5 -48.5v-238h150v268q0 53 -7.5 94t-26.5 71.5t-55 47.5t-91 17q-51 0 -87.5 -23.5t-48.5 -54.5h-2v336h-150z" />
    <glyph glyph-name="i" unicode="i" horiz-adv-x="260" 
d="M55 0h150v486h-150v-486zM43 639q0 -36 25.5 -61.5t61.5 -25.5t61.5 25.5t25.5 61.5t-25.5 61.5t-61.5 25.5t-61.5 -25.5t-25.5 -61.5z" />
    <glyph glyph-name="j" unicode="j" horiz-adv-x="260" 
d="M205 486h-150v-496q0 -19 -1.5 -34.5t-6.5 -30t-16 -24t-29 -9.5q-21 0 -39 9l-8 -133q25 -8 70 -8q98 0 139 52.5t41 151.5v522zM43 639q0 -36 25.5 -61.5t61.5 -25.5t61.5 25.5t25.5 61.5t-25.5 61.5t-61.5 25.5t-61.5 -25.5t-25.5 -61.5z" />
    <glyph glyph-name="k" unicode="k" horiz-adv-x="556" 
d="M53 0h150v246h2l164 -246h189l-198 267l193 219h-184l-166 -192v462h-150v-756z" />
    <glyph glyph-name="l" unicode="l" horiz-adv-x="260" 
d="M55 0h150v756h-150v-756z" />
    <glyph glyph-name="m" unicode="m" horiz-adv-x="870" 
d="M53 0h150v242q0 26 3.5 47.5t13 39t27.5 27.5t46 10q23 0 37 -10t20.5 -26t8 -33.5t1.5 -39.5v-257h150v257q0 50 21 79.5t70 29.5q35 0 50.5 -23t15.5 -60v-283h150v287q0 47 -8.5 85t-28.5 66t-53.5 44t-81.5 16q-55 0 -91.5 -20.5t-62.5 -66.5q-19 43 -58 65t-92 22
q-51 0 -88 -23t-54 -55h-2v66h-144v-486z" />
    <glyph glyph-name="n" unicode="n" horiz-adv-x="574" 
d="M53 0h150v242q0 26 3.5 47.5t13 39t27.5 27.5t46 10q27 0 43.5 -11.5t24 -30t9 -38t1.5 -48.5v-238h150v268q0 53 -7.5 94t-26.5 71.5t-55 47.5t-91 17q-51 0 -88 -23t-54 -55h-2v66h-144v-486z" />
    <glyph glyph-name="o" unicode="o" horiz-adv-x="610" 
d="M35 243q0 -57 20.5 -104t58 -81t86.5 -52t105 -18t105 18t86.5 52t58 81t20.5 104t-20.5 104t-58 81t-86.5 52t-105 18t-105 -18t-86.5 -52t-58 -81t-20.5 -104zM185 243q0 56 32 89.5t88 33.5t88 -33.5t32 -89.5q0 -55 -32 -89t-88 -34t-88 34t-32 89z" />
    <glyph glyph-name="p" unicode="p" horiz-adv-x="630" 
d="M67 -228h150v280h2q24 -33 64 -48.5t90 -15.5t91.5 21t70.5 57.5t44.5 83t15.5 97.5q0 55 -17 101t-48.5 79.5t-76 52t-97.5 18.5q-47 0 -88.5 -23t-60.5 -53h-2v64h-138v-714zM205 243q0 56 32 89.5t88 33.5t88 -33.5t32 -89.5q0 -55 -32 -89t-88 -34t-88 34t-32 89z
" />
    <glyph glyph-name="q" unicode="q" horiz-adv-x="630" 
d="M563 486h-138v-64h-2q-19 30 -60.5 53t-88.5 23q-53 0 -97 -18t-76 -52t-49 -80t-17 -101q0 -51 15.5 -97.5t44.5 -83t70.5 -57.5t91.5 -21t90 15.5t64 48.5h2v-280h150v714zM425 243q0 -55 -32 -89t-88 -34t-88 34t-32 89q0 56 32 89.5t88 33.5t88 -33.5t32 -89.5z" />
    <glyph glyph-name="r" unicode="r" horiz-adv-x="407" 
d="M53 0h150v203q0 42 4.5 70t17.5 49t38.5 32.5t67.5 11.5q29 0 64 -10v137q-17 5 -50 5q-48 0 -81.5 -22t-58.5 -68h-2v78h-150v-486z" />
    <glyph glyph-name="s" unicode="s" horiz-adv-x="463" 
d="M420 434q-31 34 -79 49t-101 15q-39 0 -75.5 -10t-65.5 -30t-46 -51.5t-17 -72.5q0 -40 14.5 -66.5t38.5 -42t49 -23t64 -16.5q45 -9 66 -18.5t21 -30.5q0 -18 -19.5 -26.5t-48.5 -8.5q-62 0 -106 53l-91 -101q34 -34 84.5 -50t106.5 -16q42 0 81.5 8t71.5 26.5t51.5 50
t19.5 75.5q0 40 -15 67.5t-39.5 43t-51 23.5t-64.5 16q-43 10 -63 18.5t-20 27.5q0 20 16.5 30t38.5 10q54 0 87 -41z" />
    <glyph glyph-name="t" unicode="t" horiz-adv-x="407" 
d="M384 486h-132v144h-150v-144h-96v-120h96v-231q0 -75 48.5 -111t128.5 -36q64 0 105 15v125q-9 -8 -26.5 -11t-34.5 -3q-45 0 -58 22t-13 68v162h132v120z" />
    <glyph glyph-name="u" unicode="u" horiz-adv-x="574" 
d="M521 486h-150v-242q0 -26 -3.5 -47.5t-13 -39t-27.5 -27.5t-46 -10q-27 0 -43.5 11.5t-23.5 30t-9 38t-2 48.5v238h-150v-268q0 -53 7.5 -94t26.5 -71.5t55 -47.5t91 -17q51 0 88 23t54 55h2v-66h144v486z" />
    <glyph glyph-name="v" unicode="v" horiz-adv-x="556" 
d="M203 0h159l192 486h-151l-114 -330h-2l-123 330h-162z" />
    <glyph glyph-name="w" unicode="w" horiz-adv-x="833" 
d="M173 0h151l90 323h2l101 -323h148l173 486h-152l-91 -305h-2l-90 305h-164l-83 -305h-2l-99 305h-160z" />
    <glyph glyph-name="x" unicode="x" horiz-adv-x="556" 
d="M-8 0h175l114 162l106 -162h177l-187 260l158 226h-167l-83 -132l-86 132h-177l162 -226z" />
    <glyph glyph-name="y" unicode="y" horiz-adv-x="556" 
d="M553 486h-154l-107 -321h-2l-125 321h-162l213 -490l-11 -28v-1q-19 -47 -36.5 -64t-63.5 -17q-35 0 -70 15l-20 -123q54 -18 112 -18q52 0 86 10.5t54.5 30t34 46t31.5 74.5z" />
    <glyph glyph-name="z" unicode="z" horiz-adv-x="500" 
d="M34 0h432v120h-270l264 222v144h-420v-120h246l-252 -216v-150z" />
    <glyph glyph-name="braceleft" unicode="{" horiz-adv-x="370" 
d="M356 -42h-49q-40 0 -52.5 18t-12.5 46v162q0 33 -9 53.5t-24 31t-30.5 13.5t-36.5 5v2q22 2 37.5 5.5t29.5 14t23.5 31t9.5 53.5v161q0 28 12.5 46t52.5 18h49v114h-105q-59 0 -94 -35.5t-35 -109.5v-173q0 -22 -12 -36t-30.5 -21t-35.5 -9.5t-30 -2.5v-114
q13 0 30.5 -2.5t35.5 -9.5t30 -21t12 -36v-172q0 -74 36 -110t93 -36h105v114z" />
    <glyph glyph-name="bar" unicode="|" horiz-adv-x="222" 
d="M48 750v-1000h126v1000h-126z" />
    <glyph glyph-name="braceright" unicode="}" horiz-adv-x="370" 
d="M14 618h49q41 0 53 -18t12 -46v-162q0 -33 9.5 -53.5t24 -30.5t30 -13.5t36.5 -5.5v-2q-22 -2 -37.5 -5.5t-29.5 -14t-23.5 -31t-9.5 -53.5v-161q0 -28 -12 -46t-53 -18h-49v-114h105q59 0 94 35.5t35 109.5v173q0 22 12 36t30 21t35 9.5t31 2.5v114q-14 0 -31.5 2.5
t-35 9.5t-29.5 21t-12 36v172q0 74 -35.5 110t-90.5 36h-108v-114z" />
    <glyph glyph-name="asciitilde" unicode="~" horiz-adv-x="666" 
d="M528 400q-1 -2 -4 -5q-22 -31 -40.5 -47t-43.5 -16q-15 0 -33.5 7t-47.5 20q-10 4 -21 9q-34 15 -61 23.5t-50 8.5q-46 0 -75.5 -24t-49.5 -62l36 -108q1 2 4 5q22 31 40.5 47t43.5 16q15 0 33.5 -6.5t47.5 -20.5q10 -4 21 -9q34 -15 61 -23.5t50 -8.5q46 0 75.5 24
t49.5 62z" />
    <glyph glyph-name="quotesinglbase" unicode="&#x201a;" horiz-adv-x="296" 
d="M257 156h-144l-74 -282h128z" />
    <glyph glyph-name="florin" unicode="&#x192;" 
d="M496 434h-126l15 71q9 45 26.5 64t52.5 19q27 0 52 -11l53 113q-64 30 -130 30q-47 0 -79.5 -10t-55 -32t-37.5 -59t-26 -94l-18 -91h-134v-102h114l-50 -244q-11 -52 -27.5 -73.5t-47.5 -21.5q-27 0 -46 11l-52 -119q54 -24 111 -24q89 0 136 46t65 133l58 292h146v102z
" />
    <glyph glyph-name="quotedblbase" unicode="&#x201e;" horiz-adv-x="520" 
d="M476 156h-144l-74 -282h128zM262 156h-144l-74 -282h128z" />
    <glyph glyph-name="ellipsis" unicode="&#x2026;" horiz-adv-x="1000" 
d="M75 86q0 -38 27 -65t65 -27t65 27t27 65t-27 65t-65 27t-65 -27t-27 -65zM408 86q0 -38 27 -65t65 -27t65 27t27 65t-27 65t-65 27t-65 -27t-27 -65zM741 86q0 -38 27 -65t65 -27t65 27t27 65t-27 65t-65 27t-65 -27t-27 -65z" />
    <glyph glyph-name="dagger" unicode="&#x2020;" 
d="M224 -133h138v505h196v126h-196v210h-138v-210h-190v-126h190v-505z" />
    <glyph glyph-name="daggerdbl" unicode="&#x2021;" 
d="M227 -133h138v180h193v120h-193v241h193v120h-193v180h-138v-180h-193v-120h193v-241h-193v-120h193v-180z" />
    <glyph glyph-name="circumflex" unicode="&#x2c6;" horiz-adv-x="260" 
d="M329 564l-116 144h-163l-119 -144h135l62 78l63 -78h138z" />
    <glyph glyph-name="perthousand" unicode="&#x2030;" horiz-adv-x="1167" 
d="M395 165q0 -36 13.5 -68t38 -57t56.5 -38.5t68 -13.5t68 14t56.5 38.5t38 56.5t13.5 68t-13.5 68t-38 56.5t-56.5 38t-68 13.5t-68 -13.5t-56.5 -38t-38 -56.5t-13.5 -68zM782 165q0 -36 13.5 -68t38 -56.5t56.5 -38.5t68 -14t68 13.5t57 38.5t38.5 57t13.5 68t-13.5 68
t-38.5 56.5t-57 38t-68 13.5t-68 -13.5t-56.5 -38t-38 -56.5t-13.5 -68zM32 544q0 -36 13.5 -68t38 -57t56.5 -38.5t68 -13.5t68 13.5t57 38.5t38.5 57t13.5 68t-13.5 68t-38.5 56.5t-57 38t-68 13.5t-68 -13.5t-56.5 -38t-38 -56.5t-13.5 -68zM128 544q0 33 23.5 56.5
t56.5 23.5t57 -23.5t24 -56.5t-24 -57t-57 -24t-56.5 24t-23.5 57zM491 165q0 33 23.5 56.5t56.5 23.5t56.5 -23.5t23.5 -56.5t-23.5 -57t-56.5 -24t-56.5 24t-23.5 57zM878 165q0 33 23.5 56.5t56.5 23.5t57 -23.5t24 -56.5t-24 -57t-57 -24t-56.5 24t-23.5 57zM147 11
l76 -43l413 725l-84 47z" />
    <glyph glyph-name="Scaron" unicode="&#x160;" horiz-adv-x="574" 
d="M84 930l116 -144h163l119 144h-135l-62 -78l-63 78h-138zM529 652q-43 38 -98.5 56t-118.5 18q-53 0 -101.5 -15t-86.5 -44t-60 -72.5t-22 -98.5q0 -48 17.5 -82t46.5 -55.5t60 -34t79 -28.5q66 -20 97.5 -39.5t31.5 -56.5q0 -35 -33 -54.5t-75 -19.5q-39 0 -75.5 18
t-60.5 49l-111 -122q96 -89 238 -89q56 0 105.5 14.5t87 43.5t59 73.5t21.5 101.5q0 51 -17.5 86.5t-46.5 57t-60 34t-78 26.5q-65 19 -94.5 36.5t-29.5 53.5t33 54.5t72 18.5q31 0 63 -12t50 -35z" />
    <glyph glyph-name="guilsinglleft" unicode="&#x2039;" horiz-adv-x="296" 
d="M268 422l-91 61l-159 -234l159 -234l91 61l-116 173z" />
    <glyph glyph-name="OE" unicode="&#x152;" horiz-adv-x="1018" 
d="M665 564h288v144h-527q-82 0 -153.5 -23t-125 -68.5t-83.5 -112t-30 -150.5q0 -89 34.5 -156.5t92 -111.5t128.5 -65t145 -21h531v144h-300v144h264v144h-264v132zM509 144h-51q-119 0 -190.5 54t-71.5 156t71.5 156t190.5 54h51v-420z" />
    <glyph glyph-name="quoteleft" unicode="&#x2018;" horiz-adv-x="296" 
d="M39 426h144l74 282h-128z" />
    <glyph glyph-name="quoteright" unicode="&#x2019;" horiz-adv-x="296" 
d="M257 708h-144l-74 -282h128z" />
    <glyph glyph-name="quotedblleft" unicode="&#x201c;" horiz-adv-x="520" 
d="M44 426h144l74 282h-128zM258 426h144l74 282h-128z" />
    <glyph glyph-name="quotedblright" unicode="&#x201d;" horiz-adv-x="520" 
d="M476 708h-144l-74 -282h128zM262 708h-144l-74 -282h128z" />
    <glyph glyph-name="bullet" unicode="&#x2022;" horiz-adv-x="500" 
d="M73 354q0 -36 13.5 -68t38.5 -57t57 -38.5t68 -13.5t68.5 13.5t57 38.5t38 57t13.5 68t-13.5 68.5t-38 57t-57 38t-68.5 13.5t-68 -13.5t-57 -38t-38.5 -57t-13.5 -68.5z" />
    <glyph glyph-name="endash" unicode="&#x2013;" horiz-adv-x="500" 
d="M0 189h500v120h-500v-120z" />
    <glyph glyph-name="emdash" unicode="&#x2014;" horiz-adv-x="1000" 
d="M0 189h1000v120h-1000v-120z" />
    <glyph glyph-name="tilde" unicode="&#x2dc;" horiz-adv-x="260" 
d="M13 570q6 17 16 29.5t26 12.5q19 0 60 -20l3 -1q48 -21 78 -21q59 0 89 37t41 101h-78q-8 -17 -18 -26.5t-26 -9.5q-18 0 -50 13l-6 2q-25 11 -44.5 16t-42.5 5q-52 0 -85 -40.5t-42 -97.5h79z" />
    <glyph glyph-name="trademark" unicode="&#x2122;" horiz-adv-x="1000" 
d="M159 296h108v316h119v96h-346v-96h119v-316zM474 296h108v268h2l98 -268h70l98 268h2v-268h108v412h-145l-98 -268l-98 268h-145v-412z" />
    <glyph glyph-name="scaron" unicode="&#x161;" horiz-adv-x="463" 
d="M29 708l116 -144h163l119 144h-135l-62 -78l-63 78h-138zM420 434q-31 34 -79 49t-101 15q-39 0 -75.5 -10t-65.5 -30t-46 -51.5t-17 -72.5q0 -40 14.5 -66.5t38.5 -42t49 -23t64 -16.5q45 -9 66 -18.5t21 -30.5q0 -18 -19.5 -26.5t-48.5 -8.5q-62 0 -106 53l-91 -101
q34 -34 84.5 -50t106.5 -16q42 0 81.5 8t71.5 26.5t51.5 50t19.5 75.5q0 40 -15 67.5t-39.5 43t-51 23.5t-64.5 16q-43 10 -63 18.5t-20 27.5q0 20 16.5 30t38.5 10q54 0 87 -41z" />
    <glyph glyph-name="guilsinglright" unicode="&#x203a;" horiz-adv-x="296" 
d="M28 76l91 -61l159 234l-159 234l-91 -61l116 -173z" />
    <glyph glyph-name="oe" unicode="&#x153;" horiz-adv-x="944" 
d="M778 161q-20 -28 -46 -43.5t-61 -15.5q-43 0 -73.5 25.5t-39.5 68.5h348v47q0 117 -61.5 186t-166.5 69q-63 0 -109.5 -19t-80.5 -54q-71 73 -182 73q-56 0 -105.5 -18t-87 -52t-58 -81t-20.5 -104t20.5 -104t58 -81t87 -52t105.5 -18q55 0 101 16t81 53q34 -37 80 -53
t110 -16q60 0 114.5 25.5t90.5 70.5zM306 366q56 0 88 -33.5t32 -89.5q0 -55 -32 -89t-88 -34t-88.5 33.5t-32.5 89.5t32.5 89.5t88.5 33.5zM558 298q3 38 31 65t75 27q40 0 66 -26.5t26 -65.5h-198z" />
    <glyph glyph-name="Ydieresis" unicode="&#x178;" horiz-adv-x="648" 
d="M219 780q37 0 61 25t24 61q0 35 -26 58.5t-61 23.5q-33 0 -57 -24.5t-24 -57.5q0 -35 24 -60.5t59 -25.5zM427 780q37 0 61 25t24 61q0 35 -26 58.5t-61 23.5q-33 0 -57 -24.5t-24 -57.5q0 -35 24 -60.5t59 -25.5zM246 0h156v302l266 406h-185l-159 -265l-150 265h-194
l266 -406v-302z" />
    <glyph glyph-name="exclamdown" unicode="&#xa1;" horiz-adv-x="444" 
d="M147 -222h150v474h-150v-474zM314 400q0 38 -27 65t-65 27t-65 -27t-27 -65t27 -65t65 -27t65 27t27 65z" />
    <glyph glyph-name="cent" unicode="&#xa2;" 
d="M310 -81h60v69q43 0 91.5 14.5t82.5 47.5l-91 107q-28 -27 -47 -35t-36 -8v258q39 0 76 -38l96 102q-39 33 -80 47.5t-92 14.5v66h-60v-66q-107 -13 -170.5 -81t-63.5 -174q0 -51 16.5 -96.5t47.5 -80t74.5 -55t95.5 -23.5v-69zM310 114q-45 14 -67.5 48t-22.5 82
q0 49 23 84t67 44v-258z" />
    <glyph glyph-name="sterling" unicode="&#xa3;" 
d="M48 0h499v114h-253v198h156v102h-156v49q0 54 27.5 89.5t88.5 35.5q21 0 46 -11.5t45 -31.5l100 107q-39 35 -93.5 51.5t-115.5 16.5q-58 0 -105 -19t-79 -52.5t-48 -75.5t-16 -88v-71h-96v-102h96v-198h-96v-114z" />
    <glyph glyph-name="currency" unicode="&#xa4;" 
d="M36 153l60 -59l49 48q67 -48 151 -48t151 48l49 -48l60 59l-49 49q49 67 49 152t-49 152l49 49l-60 59l-49 -48q-67 48 -151 48t-151 -48l-49 48l-60 -59l49 -49q-49 -68 -49 -152t49 -152zM168 354q0 56 37.5 95t90.5 39t90.5 -39t37.5 -95t-37.5 -95t-90.5 -39
t-90.5 39t-37.5 95z" />
    <glyph glyph-name="yen" unicode="&#xa5;" 
d="M218 0h156v158h169v96h-169v48l12 20h157v96h-100l185 290h-182l-150 -264l-150 264h-182l185 -290h-100v-96h157l12 -20v-48h-169v-96h169v-158z" />
    <glyph glyph-name="brokenbar" unicode="&#xa6;" horiz-adv-x="222" 
d="M48 675v-350h126v350h-126zM48 175v-350h126v350h-126z" />
    <glyph glyph-name="section" unicode="&#xa7;" 
d="M517 617q-15 30 -39.5 51.5t-54.5 34t-63 18t-67 5.5q-39 0 -77 -10.5t-69 -31.5t-50 -53.5t-19 -74.5q0 -36 16.5 -65.5t46.5 -49.5q-42 -26 -64.5 -62.5t-22.5 -85.5q0 -40 16.5 -70.5t43.5 -51.5t56 -35t74 -32q58 -23 84.5 -40t26.5 -43q0 -28 -24.5 -40t-55.5 -12
q-38 0 -69.5 18t-39.5 51l-128 -63q32 -68 92 -97t141 -29q43 0 86 10.5t79.5 33t58.5 57.5t22 82q0 35 -14.5 66.5t-40.5 52.5q37 18 60.5 54t23.5 76q0 37 -16.5 66t-43.5 49.5t-56 34t-76 32.5q-62 25 -91 43.5t-29 46.5q0 25 19.5 39t45.5 14q31 0 56.5 -16.5
t35.5 -44.5zM272 239l-6 3q-36 16 -55 32.5t-19 46.5q0 39 35 59l116 -55q28 -12 46.5 -29t18.5 -43q0 -41 -34 -61z" />
    <glyph glyph-name="dieresis" unicode="&#xa8;" horiz-adv-x="260" 
d="M25 558q37 0 61 25t24 61q0 35 -26 58.5t-61 23.5q-33 0 -57 -24.5t-24 -57.5q0 -35 24 -60.5t59 -25.5zM233 558q37 0 61 25t24 61q0 35 -26 58.5t-61 23.5q-33 0 -57 -24.5t-24 -57.5q0 -35 24 -60.5t59 -25.5z" />
    <glyph glyph-name="copyright" unicode="&#xa9;" horiz-adv-x="800" 
d="M494 300q-2 -35 -24 -51t-56 -16q-43 0 -69 35t-26 91q0 55 24.5 86.5t72.5 31.5q29 0 50.5 -14t27.5 -44h94q-11 72 -60 110t-120 38q-94 0 -145.5 -57.5t-51.5 -152.5q0 -93 53.5 -153.5t145.5 -60.5q68 0 118 41.5t60 115.5h-94zM28 354q0 -76 29 -143.5t80.5 -119
t119 -80.5t143.5 -29t144 29t119 80.5t80 119t29 143.5t-29 144t-80 119t-119 80t-144 29t-143.5 -29t-119 -80t-80.5 -119t-29 -144zM130 354q0 57 21 108.5t58.5 90.5t86.5 61t104 22t104 -22t86.5 -61t58.5 -90.5t21 -108.5t-21 -108.5t-58.5 -90.5t-86.5 -61t-104 -22
t-104 22t-86.5 61t-58.5 90.5t-21 108.5z" />
    <glyph glyph-name="ordfeminine" unicode="&#xaa;" horiz-adv-x="349" 
d="M230 431h96v148q0 75 -31.5 111t-112.5 36q-39 0 -76 -12t-63 -35l52 -49q36 36 79 36q25 0 40.5 -14t15.5 -33q-39 0 -71.5 -3t-63.5 -13t-51.5 -31.5t-20.5 -57.5q0 -41 32.5 -65t79.5 -24q33 0 58 10.5t35 32.5h2v-37zM236 540q0 -18 -20 -33.5t-48 -15.5q-19 0 -31 6
t-12 21q0 13 9.5 21.5t24.5 13t29 5.5t30 1h18v-19z" />
    <glyph glyph-name="guillemotleft" unicode="&#xab;" horiz-adv-x="538" 
d="M268 422l-91 61l-159 -234l159 -234l91 61l-116 173zM510 422l-91 61l-159 -234l159 -234l91 61l-116 173z" />
    <glyph glyph-name="logicalnot" unicode="&#xac;" horiz-adv-x="666" 
d="M481 142h126v320h-548v-126h422v-194z" />
    <glyph glyph-name="minus" unicode="&#xad;" horiz-adv-x="666" 
d="M59 240h548v126h-548v-126z" />
    <glyph glyph-name="minus" unicode="&#x2212;" horiz-adv-x="666" 
d="M59 240h548v126h-548v-126z" />
    <glyph glyph-name="registered" unicode="&#xae;" horiz-adv-x="800" 
d="M257 163h102v150h17l89 -150h105l-100 155q40 5 65.5 30t25.5 79q0 44 -18.5 70.5t-45 38t-51.5 14.5t-51 3h-138v-390zM358 475h41q26 0 43 -8t17 -34q0 -27 -16.5 -34.5t-43.5 -7.5h-41v84zM28 354q0 -76 29 -143.5t80.5 -119t119 -80.5t143.5 -29t144 29t119 80.5
t80 119t29 143.5t-29 144t-80 119t-119 80t-144 29t-143.5 -29t-119 -80t-80.5 -119t-29 -144zM130 354q0 57 21 108.5t58.5 90.5t86.5 61t104 22t104 -22t86.5 -61t58.5 -90.5t21 -108.5t-21 -108.5t-58.5 -90.5t-86.5 -61t-104 -22t-104 22t-86.5 61t-58.5 90.5t-21 108.5
z" />
    <glyph glyph-name="macron" unicode="&#xaf;" horiz-adv-x="260" 
d="M300 687h-340v-96h340v96z" />
    <glyph glyph-name="degree" unicode="&#xb0;" horiz-adv-x="400" 
d="M200 460q-37 0 -62.5 25.5t-25.5 62.5t25.5 62.5t62.5 25.5t62.5 -25.5t25.5 -62.5t-25.5 -62.5t-62.5 -25.5zM200 376q35 0 66.5 13t55.5 37t37 55.5t13 66.5t-13 66.5t-37 55.5t-55.5 37t-66.5 13t-66.5 -13t-55.5 -37t-37 -55.5t-13 -66.5t13 -66.5t37 -55.5t55.5 -37
t66.5 -13z" />
    <glyph glyph-name="plusminus" unicode="&#xb1;" horiz-adv-x="666" 
d="M59 323h211v-128h126v128h211v126h-211v128h-126v-128h-211v-126zM59 29h548v126h-548v-126z" />
    <glyph glyph-name="twosuperior" unicode="&#xb2;" horiz-adv-x="385" 
d="M24 289h337v84h-201v2l140 108q34 26 47.5 48t13.5 69q0 56 -45 88t-117 32q-75 0 -121.5 -34.5t-51.5 -103.5l102 -6q2 23 20 38.5t46 15.5q25 0 42 -9.5t17 -29.5q0 -13 -10.5 -24.5t-29.5 -27.5l-3 -3l-186 -158v-89z" />
    <glyph glyph-name="threesuperior" unicode="&#xb3;" horiz-adv-x="385" 
d="M143 468h25q45 0 68.5 -8t23.5 -39q0 -25 -18.5 -36.5t-49.5 -11.5q-55 0 -66 50l-109 -22q14 -61 60 -89.5t115 -28.5q75 0 125.5 33t50.5 95q0 38 -25 66.5t-67 33.5v2q40 7 61.5 32t21.5 61q0 55 -47.5 84.5t-116.5 29.5q-67 0 -112.5 -27t-61.5 -87l110 -20
q5 21 22.5 32.5t41.5 11.5q26 0 41 -8.5t15 -24.5q0 -26 -20 -35.5t-54 -9.5h-34v-84z" />
    <glyph glyph-name="acute" unicode="&#xb4;" horiz-adv-x="260" 
d="M30 564h132l173 144h-204z" />
    <glyph glyph-name="mu" unicode="&#xb5;" horiz-adv-x="574" 
d="M521 486h-150v-242q0 -26 -3.5 -47.5t-13 -39t-27.5 -27.5t-46 -10q-27 0 -43.5 11.5t-23.5 30t-9 38t-2 48.5v238h-150v-714h150v219q14 -3 30 -3q51 0 88 23t54 55h2v-66h144v486z" />
    <glyph glyph-name="paragraph" unicode="&#xb6;" horiz-adv-x="620" 
d="M236 -133h108v745h109v-745h108v841h-302q-55 0 -99.5 -8t-77 -28t-51 -55t-18.5 -87q0 -81 57.5 -126t165.5 -45v-492z" />
    <glyph glyph-name="periodcentered" unicode="&#xb7;" horiz-adv-x="296" 
d="M56 283q0 -38 27 -65t65 -27t65 27t27 65t-27 65t-65 27t-65 -27t-27 -65z" />
    <glyph glyph-name="periodcentered" unicode="&#x2219;" horiz-adv-x="296" 
d="M56 283q0 -38 27 -65t65 -27t65 27t27 65t-27 65t-65 27t-65 -27t-27 -65z" />
    <glyph glyph-name="cedilla" unicode="&#xb8;" horiz-adv-x="260" 
d="M168 0h-67l-62 -93l32 -29q19 8 36 8q18 0 34 -9t16 -25q0 -18 -19 -25t-47 -7q-21 0 -38.5 4.5t-35.5 11.5q-2 1 -3 1l-25 -47q27 -13 61.5 -21.5t63.5 -8.5q21 0 45 5.5t45.5 16.5t35 30t13.5 45t-10.5 43t-29 25.5t-39.5 11.5t-47 3z" />
    <glyph glyph-name="onesuperior" unicode="&#xb9;" horiz-adv-x="385" 
d="M183 289h108v425h-96l-159 -117l58 -66l89 75v-317z" />
    <glyph glyph-name="ordmasculine" unicode="&#xba;" horiz-adv-x="397" 
d="M23 575q0 -69 49.5 -109.5t125.5 -40.5t126 40.5t50 109.5q0 67 -50.5 109t-125.5 42t-125 -42t-50 -109zM125 575q0 29 20 48t53 19t53.5 -19t20.5 -48q0 -28 -20.5 -47t-53.5 -19t-52.5 19t-20.5 47z" />
    <glyph glyph-name="guillemotright" unicode="&#xbb;" horiz-adv-x="538" 
d="M270 76l91 -61l159 234l-159 234l-91 -61l116 -173zM28 76l91 -61l159 234l-159 234l-91 -61l116 -173z" />
    <glyph glyph-name="onequarter" unicode="&#xbc;" horiz-adv-x="889" 
d="M716 0h108v85h57v84h-57v256h-118l-199 -262v-78h209v-85zM716 169h-101l99 136h2v-136zM155 289h108v425h-96l-159 -117l58 -66l89 75v-317zM189 11l76 -43l413 725l-84 47z" />
    <glyph glyph-name="onehalf" unicode="&#xbd;" horiz-adv-x="889" 
d="M155 289h108v425h-96l-159 -117l58 -66l89 75v-317zM544 0h337v84h-201v2l140 108q34 26 47.5 48t13.5 69q0 56 -45 88t-117 32q-75 0 -121.5 -34.5t-51.5 -103.5l102 -6q2 23 20 38.5t46 15.5q25 0 42 -9.5t17 -29.5q0 -13 -10.5 -24.5t-29.5 -27.5l-3 -3l-186 -158v-89
zM189 11l76 -43l413 725l-84 47z" />
    <glyph glyph-name="threequarters" unicode="&#xbe;" horiz-adv-x="889" 
d="M130 468h25q45 0 68.5 -8t23.5 -39q0 -25 -18.5 -36.5t-49.5 -11.5q-55 0 -66 50l-109 -22q14 -61 60 -89.5t115 -28.5q75 0 125.5 33t50.5 95q0 38 -25 66.5t-67 33.5v2q40 7 61.5 32t21.5 61q0 55 -47.5 84.5t-116.5 29.5q-67 0 -112.5 -27t-60.5 -87l109 -20
q5 21 22.5 32.5t41.5 11.5q26 0 41 -8.5t15 -24.5q0 -26 -20 -35.5t-54 -9.5h-34v-84zM720 0h108v85h57v84h-57v256h-118l-199 -262v-78h209v-85zM720 169h-101l99 136h2v-136zM213 11l76 -43l413 725l-84 47z" />
    <glyph glyph-name="questiondown" unicode="&#xbf;" horiz-adv-x="556" 
d="M340 252h-150v-29q0 -18 -8.5 -35t-30.5 -34q-71 -56 -97.5 -98t-26.5 -99q0 -93 64.5 -145t160.5 -52q106 0 173 56.5t77 160.5l-154 10q-3 -39 -28.5 -64t-70.5 -25q-31 0 -51.5 19t-20.5 51q0 24 17.5 44.5t59.5 58.5q32 28 51 47q19 18 27 39t8 51v44zM357 400
q0 38 -27 65t-65 27t-65 -27t-27 -65t27 -65t65 -27t65 27t27 65z" />
    <glyph glyph-name="Agrave" unicode="&#xc0;" horiz-adv-x="741" 
d="M372 903h-204l173 -144h132zM-1 0h172l59 150h275l61 -150h176l-308 708h-129zM452 282h-173l86 220z" />
    <glyph glyph-name="Aacute" unicode="&#xc1;" horiz-adv-x="741" 
d="M271 759h132l173 144h-204zM-1 0h172l59 150h275l61 -150h176l-308 708h-129zM452 282h-173l86 220z" />
    <glyph glyph-name="Acircumflex" unicode="&#xc2;" horiz-adv-x="741" 
d="M570 759l-116 144h-163l-119 -144h135l62 78l63 -78h138zM-1 0h172l59 150h275l61 -150h176l-308 708h-129zM452 282h-173l86 220z" />
    <glyph glyph-name="Atilde" unicode="&#xc3;" horiz-adv-x="741" 
d="M254 765q6 17 16 29.5t26 12.5q19 0 60 -20l3 -1q48 -21 78 -21q59 0 89 37t41 101h-78q-8 -17 -18 -26.5t-26 -9.5q-18 0 -50 13l-6 2q-25 11 -44.5 16t-42.5 5q-52 0 -85 -40.5t-42 -97.5h79zM-1 0h172l59 150h275l61 -150h176l-308 708h-129zM452 282h-173l86 220z
" />
    <glyph glyph-name="Adieresis" unicode="&#xc4;" horiz-adv-x="741" 
d="M266 753q37 0 61 25t24 61q0 35 -26 58.5t-61 23.5q-33 0 -57 -24.5t-24 -57.5q0 -35 24 -60.5t59 -25.5zM474 753q37 0 61 25t24 61q0 35 -26 58.5t-61 23.5q-33 0 -57 -24.5t-24 -57.5q0 -35 24 -60.5t59 -25.5zM-1 0h172l59 150h275l61 -150h176l-308 708h-129z
M452 282h-173l86 220z" />
    <glyph glyph-name="Aring" unicode="&#xc5;" horiz-adv-x="741" 
d="M371 731q46 0 78.5 32.5t32.5 78.5t-32.5 78.5t-78.5 32.5t-78.5 -32.5t-32.5 -78.5t32.5 -78.5t78.5 -32.5zM320 842q0 21 15 36t36 15t36 -15t15 -36t-15 -36t-36 -15t-36 15t-15 36zM-1 0h172l59 150h275l61 -150h176l-308 708h-129zM452 282h-173l86 220z" />
    <glyph glyph-name="AE" unicode="&#xc6;" horiz-adv-x="1037" 
d="M534 0h450v144h-294v144h258v144h-258v132h282v144h-538l-449 -708h191l95 150h263v-150zM534 282h-196l179 282h17v-282z" />
    <glyph glyph-name="Ccedilla" unicode="&#xc7;" horiz-adv-x="685" 
d="M655 622q-42 54 -107 79t-132 25q-82 0 -152.5 -26t-122 -75t-79.5 -118t-28 -153q0 -73 21.5 -135t61.5 -109.5t95.5 -78t121.5 -42.5l-54 -82l32 -29q19 8 36 8q18 0 34 -9t16 -25q0 -18 -19 -25t-47 -7q-21 0 -38.5 4.5t-35.5 11.5q-2 1 -3 1l-25 -47
q27 -13 61.5 -21.5t63.5 -8.5q21 0 45 5.5t45.5 16.5t35 30t13.5 45t-10.5 43t-29 25.5t-39.5 11.5t-47 3l29 43q6 -1 19 -1q76 0 144.5 31t111.5 92l-130 97q-24 -36 -61.5 -56t-84.5 -20q-42 0 -78.5 17t-64 48t-42.5 72.5t-15 90.5t15 91t43 72.5t65.5 47.5t81.5 17
q85 0 134 -58z" />
    <glyph glyph-name="Egrave" unicode="&#xc8;" horiz-adv-x="630" 
d="M316 903h-204l173 -144h132zM78 0h499v144h-343v144h307v144h-307v132h325v144h-481v-708z" />
    <glyph glyph-name="Eacute" unicode="&#xc9;" horiz-adv-x="630" 
d="M215 759h132l173 144h-204zM78 0h499v144h-343v144h307v144h-307v132h325v144h-481v-708z" />
    <glyph glyph-name="Ecircumflex" unicode="&#xca;" horiz-adv-x="630" 
d="M514 759l-116 144h-163l-119 -144h135l62 78l63 -78h138zM78 0h499v144h-343v144h307v144h-307v132h325v144h-481v-708z" />
    <glyph glyph-name="Edieresis" unicode="&#xcb;" horiz-adv-x="630" 
d="M210 753q37 0 61 25t24 61q0 35 -26 58.5t-61 23.5q-33 0 -57 -24.5t-24 -57.5q0 -35 24 -60.5t59 -25.5zM418 753q37 0 61 25t24 61q0 35 -26 58.5t-61 23.5q-33 0 -57 -24.5t-24 -57.5q0 -35 24 -60.5t59 -25.5zM78 0h499v144h-343v144h307v144h-307v132h325v144h-481
v-708z" />
    <glyph glyph-name="Igrave" unicode="&#xcc;" horiz-adv-x="296" 
d="M149 903h-204l173 -144h132zM70 0h156v708h-156v-708z" />
    <glyph glyph-name="Iacute" unicode="&#xcd;" horiz-adv-x="296" 
d="M48 759h132l173 144h-204zM70 0h156v708h-156v-708z" />
    <glyph glyph-name="Icircumflex" unicode="&#xce;" horiz-adv-x="296" 
d="M347 759l-116 144h-163l-119 -144h135l62 78l63 -78h138zM70 0h156v708h-156v-708z" />
    <glyph glyph-name="Idieresis" unicode="&#xcf;" horiz-adv-x="296" 
d="M43 753q37 0 61 25t24 61q0 35 -26 58.5t-61 23.5q-33 0 -57 -24.5t-24 -57.5q0 -35 24 -60.5t59 -25.5zM251 753q37 0 61 25t24 61q0 35 -26 58.5t-61 23.5q-33 0 -57 -24.5t-24 -57.5q0 -35 24 -60.5t59 -25.5zM70 0h156v708h-156v-708z" />
    <glyph glyph-name="Eth" unicode="&#xd0;" horiz-adv-x="759" 
d="M228 564h92q105 0 174 -52.5t69 -151.5q0 -59 -18.5 -100.5t-53 -67t-80 -37t-102.5 -11.5h-81v174h198v102h-198v144zM72 0h255q80 0 152 23t127.5 68t87 111.5t31.5 149.5q0 94 -32.5 162.5t-89.5 111t-132.5 62.5t-164.5 20h-234v-288h-60v-102h60v-318z" />
    <glyph glyph-name="Ntilde" unicode="&#xd1;" horiz-adv-x="815" 
d="M291 765q6 17 16 29.5t26 12.5q19 0 60 -20l3 -1q48 -21 78 -21q59 0 89 37t41 101h-78q-8 -17 -18 -26.5t-26 -9.5q-18 0 -50 13l-6 2q-25 11 -44.5 16t-42.5 5q-52 0 -85 -40.5t-42 -97.5h79zM72 0h156v504h2l309 -504h204v708h-156v-492h-2l-301 492h-212v-708z" />
    <glyph glyph-name="Ograve" unicode="&#xd2;" horiz-adv-x="832" 
d="M417 903h-204l173 -144h132zM34 354q0 -84 28 -153t79.5 -118t122 -75t152.5 -26q83 0 153 26t121.5 75t79.5 118t28 153t-28 153t-79.5 118t-121.5 75t-153 26q-82 0 -152.5 -26t-122 -75t-79.5 -118t-28 -153zM196 354q0 49 15.5 91t44.5 72.5t70 47.5t90 17t90 -17
t70 -47.5t44.5 -72.5t15.5 -91t-15.5 -91t-44.5 -72.5t-70 -47.5t-90 -17t-90 17t-70 47.5t-44.5 72.5t-15.5 91z" />
    <glyph glyph-name="Oacute" unicode="&#xd3;" horiz-adv-x="832" 
d="M316 759h132l173 144h-204zM34 354q0 -84 28 -153t79.5 -118t122 -75t152.5 -26q83 0 153 26t121.5 75t79.5 118t28 153t-28 153t-79.5 118t-121.5 75t-153 26q-82 0 -152.5 -26t-122 -75t-79.5 -118t-28 -153zM196 354q0 49 15.5 91t44.5 72.5t70 47.5t90 17t90 -17
t70 -47.5t44.5 -72.5t15.5 -91t-15.5 -91t-44.5 -72.5t-70 -47.5t-90 -17t-90 17t-70 47.5t-44.5 72.5t-15.5 91z" />
    <glyph glyph-name="Ocircumflex" unicode="&#xd4;" horiz-adv-x="832" 
d="M615 759l-116 144h-163l-119 -144h135l62 78l63 -78h138zM34 354q0 -84 28 -153t79.5 -118t122 -75t152.5 -26q83 0 153 26t121.5 75t79.5 118t28 153t-28 153t-79.5 118t-121.5 75t-153 26q-82 0 -152.5 -26t-122 -75t-79.5 -118t-28 -153zM196 354q0 49 15.5 91
t44.5 72.5t70 47.5t90 17t90 -17t70 -47.5t44.5 -72.5t15.5 -91t-15.5 -91t-44.5 -72.5t-70 -47.5t-90 -17t-90 17t-70 47.5t-44.5 72.5t-15.5 91z" />
    <glyph glyph-name="Otilde" unicode="&#xd5;" horiz-adv-x="832" 
d="M299 765q6 17 16 29.5t26 12.5q19 0 60 -20l3 -1q48 -21 78 -21q59 0 89 37t41 101h-78q-8 -17 -18 -26.5t-26 -9.5q-18 0 -50 13l-6 2q-25 11 -44.5 16t-42.5 5q-52 0 -85 -40.5t-42 -97.5h79zM34 354q0 -84 28 -153t79.5 -118t122 -75t152.5 -26q83 0 153 26t121.5 75
t79.5 118t28 153t-28 153t-79.5 118t-121.5 75t-153 26q-82 0 -152.5 -26t-122 -75t-79.5 -118t-28 -153zM196 354q0 49 15.5 91t44.5 72.5t70 47.5t90 17t90 -17t70 -47.5t44.5 -72.5t15.5 -91t-15.5 -91t-44.5 -72.5t-70 -47.5t-90 -17t-90 17t-70 47.5t-44.5 72.5
t-15.5 91z" />
    <glyph glyph-name="Odieresis" unicode="&#xd6;" horiz-adv-x="832" 
d="M311 753q37 0 61 25t24 61q0 35 -26 58.5t-61 23.5q-33 0 -57 -24.5t-24 -57.5q0 -35 24 -60.5t59 -25.5zM519 753q37 0 61 25t24 61q0 35 -26 58.5t-61 23.5q-33 0 -57 -24.5t-24 -57.5q0 -35 24 -60.5t59 -25.5zM34 354q0 -84 28 -153t79.5 -118t122 -75t152.5 -26
q83 0 153 26t121.5 75t79.5 118t28 153t-28 153t-79.5 118t-121.5 75t-153 26q-82 0 -152.5 -26t-122 -75t-79.5 -118t-28 -153zM196 354q0 49 15.5 91t44.5 72.5t70 47.5t90 17t90 -17t70 -47.5t44.5 -72.5t15.5 -91t-15.5 -91t-44.5 -72.5t-70 -47.5t-90 -17t-90 17
t-70 47.5t-44.5 72.5t-15.5 91z" />
    <glyph glyph-name="multiply" unicode="&#xd7;" horiz-adv-x="666" 
d="M64 475l178 -172l-174 -181l89 -86l177 177l176 -176l92 93l-180 173l173 180l-89 86l-172 -174l-177 175z" />
    <glyph glyph-name="Oslash" unicode="&#xd8;" horiz-adv-x="832" 
d="M34 -3l56 -48l93 101q46 -33 106 -50.5t127 -17.5q83 0 153 26t121.5 75t79.5 118t28 153q0 80 -25.5 146t-72.5 115l90 98l-55 49l-92 -100q-96 64 -227 64q-82 0 -152.5 -26t-122 -75t-79.5 -118t-28 -153q0 -77 24 -141.5t69 -113.5zM235 217q-39 59 -39 137
q0 49 15.5 91t44.5 72.5t70 47.5t90 17q71 0 123 -34zM592 497q44 -58 44 -143q0 -49 -15.5 -91t-44.5 -72.5t-70 -47.5t-90 -17q-75 0 -129 38z" />
    <glyph glyph-name="Ugrave" unicode="&#xd9;" horiz-adv-x="741" 
d="M372 903h-204l173 -144h132zM669 708h-156v-429q0 -65 -40.5 -109t-101.5 -44q-62 0 -102.5 44t-40.5 109v429h-156v-435q0 -130 78 -210.5t221 -80.5t220.5 80.5t77.5 210.5v435z" />
    <glyph glyph-name="Uacute" unicode="&#xda;" horiz-adv-x="741" 
d="M271 759h132l173 144h-204zM669 708h-156v-429q0 -65 -40.5 -109t-101.5 -44q-62 0 -102.5 44t-40.5 109v429h-156v-435q0 -130 78 -210.5t221 -80.5t220.5 80.5t77.5 210.5v435z" />
    <glyph glyph-name="Ucircumflex" unicode="&#xdb;" horiz-adv-x="741" 
d="M570 759l-116 144h-163l-119 -144h135l62 78l63 -78h138zM669 708h-156v-429q0 -65 -40.5 -109t-101.5 -44q-62 0 -102.5 44t-40.5 109v429h-156v-435q0 -130 78 -210.5t221 -80.5t220.5 80.5t77.5 210.5v435z" />
    <glyph glyph-name="Udieresis" unicode="&#xdc;" horiz-adv-x="741" 
d="M266 753q37 0 61 25t24 61q0 35 -26 58.5t-61 23.5q-33 0 -57 -24.5t-24 -57.5q0 -35 24 -60.5t59 -25.5zM474 753q37 0 61 25t24 61q0 35 -26 58.5t-61 23.5q-33 0 -57 -24.5t-24 -57.5q0 -35 24 -60.5t59 -25.5zM669 708h-156v-429q0 -65 -40.5 -109t-101.5 -44
q-62 0 -102.5 44t-40.5 109v429h-156v-435q0 -130 78 -210.5t221 -80.5t220.5 80.5t77.5 210.5v435z" />
    <glyph glyph-name="Yacute" unicode="&#xdd;" horiz-adv-x="648" 
d="M224 786h132l173 144h-204zM246 0h156v302l266 406h-185l-159 -265l-150 265h-194l266 -406v-302z" />
    <glyph glyph-name="Thorn" unicode="&#xde;" horiz-adv-x="630" 
d="M72 0h156v150h114q59 0 106 11t82 36t54.5 67.5t19.5 102.5q0 61 -20.5 103t-57.5 66.5t-85 35t-106 10.5h-107v126h-156v-708zM228 450h80q26 0 49 -3t42 -11.5t31 -25.5t12 -43q0 -45 -31.5 -65t-78.5 -20h-104v168z" />
    <glyph glyph-name="germandbls" unicode="&#xdf;" horiz-adv-x="630" 
d="M53 0h150v538q0 45 28 71.5t74 26.5q37 0 64 -21t27 -57q0 -38 -26 -58.5t-65 -20.5h-12v-126h20q62 0 99.5 -30.5t37.5 -91.5q0 -57 -39 -87t-99 -30q-23 0 -49 8v-122q47 -12 93 -12q105 0 171.5 62t66.5 167q0 80 -39.5 135.5t-116.5 70.5v2q102 42 102 160
q0 46 -19.5 80.5t-52.5 57.5t-74 34t-85 11q-256 0 -256 -255v-513z" />
    <glyph glyph-name="agrave" unicode="&#xe0;" horiz-adv-x="537" 
d="M270 708h-204l173 -144h132zM358 0h138v247q0 129 -48.5 190t-173.5 61q-61 0 -117.5 -20t-96.5 -58l80 -82q52 58 122 58q40 0 68 -24t28 -63q-65 0 -116 -4t-100.5 -20t-81 -52t-31.5 -95q0 -70 50.5 -110t122.5 -40q49 0 90 18t64 55h2v-61zM358 213v-32
q0 -43 -33.5 -67t-80.5 -24q-28 0 -49.5 14t-21.5 39q0 23 15.5 37.5t39 21.5t46.5 9t47 2h37z" />
    <glyph glyph-name="aacute" unicode="&#xe1;" horiz-adv-x="537" 
d="M169 564h132l173 144h-204zM358 0h138v247q0 129 -48.5 190t-173.5 61q-61 0 -117.5 -20t-96.5 -58l80 -82q52 58 122 58q40 0 68 -24t28 -63q-65 0 -116 -4t-100.5 -20t-81 -52t-31.5 -95q0 -70 50.5 -110t122.5 -40q49 0 90 18t64 55h2v-61zM358 213v-32
q0 -43 -33.5 -67t-80.5 -24q-28 0 -49.5 14t-21.5 39q0 23 15.5 37.5t39 21.5t46.5 9t47 2h37z" />
    <glyph glyph-name="acircumflex" unicode="&#xe2;" horiz-adv-x="537" 
d="M468 564l-116 144h-163l-119 -144h135l62 78l63 -78h138zM358 0h138v247q0 129 -48.5 190t-173.5 61q-61 0 -117.5 -20t-96.5 -58l80 -82q52 58 122 58q40 0 68 -24t28 -63q-65 0 -116 -4t-100.5 -20t-81 -52t-31.5 -95q0 -70 50.5 -110t122.5 -40q49 0 90 18t64 55h2
v-61zM358 213v-32q0 -43 -33.5 -67t-80.5 -24q-28 0 -49.5 14t-21.5 39q0 23 15.5 37.5t39 21.5t46.5 9t47 2h37z" />
    <glyph glyph-name="atilde" unicode="&#xe3;" horiz-adv-x="537" 
d="M152 570q6 17 16 29.5t26 12.5q19 0 60 -20l3 -1q48 -21 78 -21q59 0 89 37t41 101h-78q-8 -17 -18 -26.5t-26 -9.5q-18 0 -50 13l-6 2q-25 11 -44.5 16t-42.5 5q-52 0 -85 -40.5t-42 -97.5h79zM358 0h138v247q0 129 -48.5 190t-173.5 61q-61 0 -117.5 -20t-96.5 -58
l80 -82q52 58 122 58q40 0 68 -24t28 -63q-65 0 -116 -4t-100.5 -20t-81 -52t-31.5 -95q0 -70 50.5 -110t122.5 -40q49 0 90 18t64 55h2v-61zM358 213v-32q0 -43 -33.5 -67t-80.5 -24q-28 0 -49.5 14t-21.5 39q0 23 15.5 37.5t39 21.5t46.5 9t47 2h37z" />
    <glyph glyph-name="adieresis" unicode="&#xe4;" horiz-adv-x="537" 
d="M164 558q37 0 61 25t24 61q0 35 -26 58.5t-61 23.5q-33 0 -57 -24.5t-24 -57.5q0 -35 24 -60.5t59 -25.5zM372 558q37 0 61 25t24 61q0 35 -26 58.5t-61 23.5q-33 0 -57 -24.5t-24 -57.5q0 -35 24 -60.5t59 -25.5zM358 0h138v247q0 129 -48.5 190t-173.5 61
q-61 0 -117.5 -20t-96.5 -58l80 -82q52 58 122 58q40 0 68 -24t28 -63q-65 0 -116 -4t-100.5 -20t-81 -52t-31.5 -95q0 -70 50.5 -110t122.5 -40q49 0 90 18t64 55h2v-61zM358 213v-32q0 -43 -33.5 -67t-80.5 -24q-28 0 -49.5 14t-21.5 39q0 23 15.5 37.5t39 21.5t46.5 9
t47 2h37z" />
    <glyph glyph-name="aring" unicode="&#xe5;" horiz-adv-x="537" 
d="M269 545q46 0 78.5 32.5t32.5 78.5t-32.5 78.5t-78.5 32.5t-78.5 -32.5t-32.5 -78.5t32.5 -78.5t78.5 -32.5zM218 656q0 21 15 36t36 15t36 -15t15 -36t-15 -36t-36 -15t-36 15t-15 36zM358 0h138v247q0 129 -48.5 190t-173.5 61q-61 0 -117.5 -20t-96.5 -58l80 -82
q52 58 122 58q40 0 68 -24t28 -63q-65 0 -116 -4t-100.5 -20t-81 -52t-31.5 -95q0 -70 50.5 -110t122.5 -40q49 0 90 18t64 55h2v-61zM358 213v-32q0 -43 -33.5 -67t-80.5 -24q-28 0 -49.5 14t-21.5 39q0 23 15.5 37.5t39 21.5t46.5 9t47 2h37z" />
    <glyph glyph-name="ae" unicode="&#xe6;" horiz-adv-x="852" 
d="M140 338q52 58 122 58q40 0 63.5 -27t23.5 -71h-18q-56 0 -103.5 -4t-93.5 -19t-75.5 -48.5t-29.5 -88.5q0 -70 50.5 -110t122.5 -40q67 0 118 19t81 60q30 -42 80 -60.5t114 -18.5q60 0 114.5 25.5t90.5 70.5l-105 77q-20 -28 -46 -43.5t-61 -15.5q-43 0 -73.5 25.5
t-39.5 68.5h348v47q0 117 -61.5 186t-166.5 69q-48 0 -91 -15t-72 -44q-30 30 -71.5 44.5t-86.5 14.5q-61 0 -117.5 -20t-96.5 -58zM173 139q0 20 16.5 32t42 17.5t49 6.5t50.5 1h18q0 -50 -24 -78t-75 -28q-33 0 -55 10t-22 39zM475 298q3 38 31 65t75 27q40 0 66 -26.5
t26 -65.5h-198z" />
    <glyph glyph-name="ccedilla" unicode="&#xe7;" horiz-adv-x="482" 
d="M481 433q-33 33 -79 49t-94 16q-56 0 -105 -18t-86.5 -52t-58 -81t-20.5 -104q0 -95 55.5 -161t144.5 -85l-60 -90l32 -29q19 8 36 8q18 0 34 -9t16 -25q0 -18 -19 -25t-47 -7q-21 0 -38.5 4.5t-35.5 11.5q-2 1 -3 1l-25 -47q27 -13 61.5 -21.5t63.5 -8.5q21 0 45 5.5
t45.5 16.5t35 30t13.5 45t-10.5 43t-29 25.5t-39.5 11.5t-47 3l33 49q2 -1 9 -1q48 0 94 16t79 49l-99 104q-14 -17 -32.5 -27t-41.5 -10q-56 0 -88 34t-32 89q0 56 32 89.5t88 33.5q22 0 42 -10t32 -27z" />
    <glyph glyph-name="egrave" unicode="&#xe8;" horiz-adv-x="574" 
d="M288 708h-204l173 -144h132zM408 161q-20 -28 -46 -43.5t-61 -15.5q-43 0 -73.5 25.5t-39.5 68.5h348v47q0 117 -61.5 186t-166.5 69q-56 0 -105 -18t-86.5 -52t-58 -81t-20.5 -104t20.5 -104t58 -81t86.5 -52t105 -18q60 0 114.5 25.5t90.5 70.5zM188 298q3 38 31 65
t75 27q40 0 66 -26.5t26 -65.5h-198z" />
    <glyph glyph-name="eacute" unicode="&#xe9;" horiz-adv-x="574" 
d="M187 564h132l173 144h-204zM408 161q-20 -28 -46 -43.5t-61 -15.5q-43 0 -73.5 25.5t-39.5 68.5h348v47q0 117 -61.5 186t-166.5 69q-56 0 -105 -18t-86.5 -52t-58 -81t-20.5 -104t20.5 -104t58 -81t86.5 -52t105 -18q60 0 114.5 25.5t90.5 70.5zM188 298q3 38 31 65
t75 27q40 0 66 -26.5t26 -65.5h-198z" />
    <glyph glyph-name="ecircumflex" unicode="&#xea;" horiz-adv-x="574" 
d="M486 564l-116 144h-163l-119 -144h135l62 78l63 -78h138zM408 161q-20 -28 -46 -43.5t-61 -15.5q-43 0 -73.5 25.5t-39.5 68.5h348v47q0 117 -61.5 186t-166.5 69q-56 0 -105 -18t-86.5 -52t-58 -81t-20.5 -104t20.5 -104t58 -81t86.5 -52t105 -18q60 0 114.5 25.5
t90.5 70.5zM188 298q3 38 31 65t75 27q40 0 66 -26.5t26 -65.5h-198z" />
    <glyph glyph-name="edieresis" unicode="&#xeb;" horiz-adv-x="574" 
d="M182 558q37 0 61 25t24 61q0 35 -26 58.5t-61 23.5q-33 0 -57 -24.5t-24 -57.5q0 -35 24 -60.5t59 -25.5zM390 558q37 0 61 25t24 61q0 35 -26 58.5t-61 23.5q-33 0 -57 -24.5t-24 -57.5q0 -35 24 -60.5t59 -25.5zM408 161q-20 -28 -46 -43.5t-61 -15.5q-43 0 -73.5 25.5
t-39.5 68.5h348v47q0 117 -61.5 186t-166.5 69q-56 0 -105 -18t-86.5 -52t-58 -81t-20.5 -104t20.5 -104t58 -81t86.5 -52t105 -18q60 0 114.5 25.5t90.5 70.5zM188 298q3 38 31 65t75 27q40 0 66 -26.5t26 -65.5h-198z" />
    <glyph glyph-name="igrave" unicode="&#xec;" horiz-adv-x="260" 
d="M131 708h-204l173 -144h132zM55 0h150v486h-150v-486z" />
    <glyph glyph-name="iacute" unicode="&#xed;" horiz-adv-x="260" 
d="M30 564h132l173 144h-204zM55 0h150v486h-150v-486z" />
    <glyph glyph-name="icircumflex" unicode="&#xee;" horiz-adv-x="260" 
d="M329 564l-116 144h-163l-119 -144h135l62 78l63 -78h138zM55 0h150v486h-150v-486z" />
    <glyph glyph-name="idieresis" unicode="&#xef;" horiz-adv-x="260" 
d="M25 558q37 0 61 25t24 61q0 35 -26 58.5t-61 23.5q-33 0 -57 -24.5t-24 -57.5q0 -35 24 -60.5t59 -25.5zM233 558q37 0 61 25t24 61q0 35 -26 58.5t-61 23.5q-33 0 -57 -24.5t-24 -57.5q0 -35 24 -60.5t59 -25.5zM55 0h150v486h-150v-486z" />
    <glyph glyph-name="eth" unicode="&#xf0;" horiz-adv-x="610" 
d="M449 777l-114 -48q-39 40 -80 72l-122 -70q16 -11 37 -29t32 -30l-108 -46l72 -68l106 45q12 -11 27.5 -27t30.5 -33.5t29.5 -36t23.5 -32.5l-2 -2q-18 15 -42.5 20.5t-55.5 5.5q-46 0 -90.5 -18t-80 -52t-56.5 -81.5t-21 -103.5q0 -57 20.5 -104t58 -81t86.5 -52
t105 -18q130 0 200 79.5t70 216.5q0 67 -16.5 125t-42.5 103.5t-53 78.5t-60 68l123 51zM185 243q0 56 32 89.5t88 33.5t88 -33.5t32 -89.5q0 -55 -32 -89t-88 -34t-88 34t-32 89z" />
    <glyph glyph-name="ntilde" unicode="&#xf1;" horiz-adv-x="574" 
d="M170 570q6 17 16 29.5t26 12.5q19 0 60 -20l3 -1q48 -21 78 -21q59 0 89 37t41 101h-78q-8 -17 -18 -26.5t-26 -9.5q-18 0 -50 13l-6 2q-25 11 -44.5 16t-42.5 5q-52 0 -85 -40.5t-42 -97.5h79zM53 0h150v242q0 26 3.5 47.5t13 39t27.5 27.5t46 10q27 0 43.5 -11.5
t24 -30t9 -38t1.5 -48.5v-238h150v268q0 53 -7.5 94t-26.5 71.5t-55 47.5t-91 17q-51 0 -88 -23t-54 -55h-2v66h-144v-486z" />
    <glyph glyph-name="ograve" unicode="&#xf2;" horiz-adv-x="610" 
d="M306 708h-204l173 -144h132zM35 243q0 -57 20.5 -104t58 -81t86.5 -52t105 -18t105 18t86.5 52t58 81t20.5 104t-20.5 104t-58 81t-86.5 52t-105 18t-105 -18t-86.5 -52t-58 -81t-20.5 -104zM185 243q0 56 32 89.5t88 33.5t88 -33.5t32 -89.5q0 -55 -32 -89t-88 -34
t-88 34t-32 89z" />
    <glyph glyph-name="oacute" unicode="&#xf3;" horiz-adv-x="610" 
d="M205 564h132l173 144h-204zM35 243q0 -57 20.5 -104t58 -81t86.5 -52t105 -18t105 18t86.5 52t58 81t20.5 104t-20.5 104t-58 81t-86.5 52t-105 18t-105 -18t-86.5 -52t-58 -81t-20.5 -104zM185 243q0 56 32 89.5t88 33.5t88 -33.5t32 -89.5q0 -55 -32 -89t-88 -34
t-88 34t-32 89z" />
    <glyph glyph-name="ocircumflex" unicode="&#xf4;" horiz-adv-x="610" 
d="M504 564l-116 144h-163l-119 -144h135l62 78l63 -78h138zM35 243q0 -57 20.5 -104t58 -81t86.5 -52t105 -18t105 18t86.5 52t58 81t20.5 104t-20.5 104t-58 81t-86.5 52t-105 18t-105 -18t-86.5 -52t-58 -81t-20.5 -104zM185 243q0 56 32 89.5t88 33.5t88 -33.5t32 -89.5
q0 -55 -32 -89t-88 -34t-88 34t-32 89z" />
    <glyph glyph-name="otilde" unicode="&#xf5;" horiz-adv-x="610" 
d="M188 570q6 17 16 29.5t26 12.5q19 0 60 -20l3 -1q48 -21 78 -21q59 0 89 37t41 101h-78q-8 -17 -18 -26.5t-26 -9.5q-18 0 -50 13l-6 2q-25 11 -44.5 16t-42.5 5q-52 0 -85 -40.5t-42 -97.5h79zM35 243q0 -57 20.5 -104t58 -81t86.5 -52t105 -18t105 18t86.5 52t58 81
t20.5 104t-20.5 104t-58 81t-86.5 52t-105 18t-105 -18t-86.5 -52t-58 -81t-20.5 -104zM185 243q0 56 32 89.5t88 33.5t88 -33.5t32 -89.5q0 -55 -32 -89t-88 -34t-88 34t-32 89z" />
    <glyph glyph-name="odieresis" unicode="&#xf6;" horiz-adv-x="610" 
d="M200 558q37 0 61 25t24 61q0 35 -26 58.5t-61 23.5q-33 0 -57 -24.5t-24 -57.5q0 -35 24 -60.5t59 -25.5zM408 558q37 0 61 25t24 61q0 35 -26 58.5t-61 23.5q-33 0 -57 -24.5t-24 -57.5q0 -35 24 -60.5t59 -25.5zM35 243q0 -57 20.5 -104t58 -81t86.5 -52t105 -18
t105 18t86.5 52t58 81t20.5 104t-20.5 104t-58 81t-86.5 52t-105 18t-105 -18t-86.5 -52t-58 -81t-20.5 -104zM185 243q0 56 32 89.5t88 33.5t88 -33.5t32 -89.5q0 -55 -32 -89t-88 -34t-88 34t-32 89z" />
    <glyph glyph-name="divide" unicode="&#xf7;" horiz-adv-x="666" 
d="M59 240h548v126h-548v-126zM247 114q0 -35 25.5 -60.5t60.5 -25.5t60.5 25.5t25.5 60.5t-25.5 60.5t-60.5 25.5t-60.5 -25.5t-25.5 -60.5zM247 492q0 -35 25.5 -60.5t60.5 -25.5t60.5 25.5t25.5 60.5t-25.5 60.5t-60.5 25.5t-60.5 -25.5t-25.5 -60.5z" />
    <glyph glyph-name="oslash" unicode="&#xf8;" horiz-adv-x="610" 
d="M26 6l47 -45l73 73q69 -46 159 -46q56 0 105 18t86.5 52t58 81t20.5 104q0 96 -57 162l66 66l-47 45l-67 -67q-71 49 -165 49q-56 0 -105 -18t-86.5 -52t-58 -81t-20.5 -104q0 -100 61 -167zM200 180q-15 27 -15 63q0 56 32 89.5t88 33.5q38 0 65 -16zM413 300
q12 -25 12 -57q0 -55 -32 -89t-88 -34q-33 0 -59 14z" />
    <glyph glyph-name="ugrave" unicode="&#xf9;" horiz-adv-x="574" 
d="M288 708h-204l173 -144h132zM521 486h-150v-242q0 -26 -3.5 -47.5t-13 -39t-27.5 -27.5t-46 -10q-27 0 -43.5 11.5t-23.5 30t-9 38t-2 48.5v238h-150v-268q0 -53 7.5 -94t26.5 -71.5t55 -47.5t91 -17q51 0 88 23t54 55h2v-66h144v486z" />
    <glyph glyph-name="uacute" unicode="&#xfa;" horiz-adv-x="574" 
d="M187 564h132l173 144h-204zM521 486h-150v-242q0 -26 -3.5 -47.5t-13 -39t-27.5 -27.5t-46 -10q-27 0 -43.5 11.5t-23.5 30t-9 38t-2 48.5v238h-150v-268q0 -53 7.5 -94t26.5 -71.5t55 -47.5t91 -17q51 0 88 23t54 55h2v-66h144v486z" />
    <glyph glyph-name="ucircumflex" unicode="&#xfb;" horiz-adv-x="574" 
d="M486 564l-116 144h-163l-119 -144h135l62 78l63 -78h138zM521 486h-150v-242q0 -26 -3.5 -47.5t-13 -39t-27.5 -27.5t-46 -10q-27 0 -43.5 11.5t-23.5 30t-9 38t-2 48.5v238h-150v-268q0 -53 7.5 -94t26.5 -71.5t55 -47.5t91 -17q51 0 88 23t54 55h2v-66h144v486z" />
    <glyph glyph-name="udieresis" unicode="&#xfc;" horiz-adv-x="574" 
d="M182 558q37 0 61 25t24 61q0 35 -26 58.5t-61 23.5q-33 0 -57 -24.5t-24 -57.5q0 -35 24 -60.5t59 -25.5zM390 558q37 0 61 25t24 61q0 35 -26 58.5t-61 23.5q-33 0 -57 -24.5t-24 -57.5q0 -35 24 -60.5t59 -25.5zM521 486h-150v-242q0 -26 -3.5 -47.5t-13 -39
t-27.5 -27.5t-46 -10q-27 0 -43.5 11.5t-23.5 30t-9 38t-2 48.5v238h-150v-268q0 -53 7.5 -94t26.5 -71.5t55 -47.5t91 -17q51 0 88 23t54 55h2v-66h144v486z" />
    <glyph glyph-name="yacute" unicode="&#xfd;" horiz-adv-x="556" 
d="M178 564h132l173 144h-204zM553 486h-154l-107 -321h-2l-125 321h-162l213 -490l-11 -28v-1q-19 -47 -36.5 -64t-63.5 -17q-35 0 -70 15l-20 -123q54 -18 112 -18q52 0 86 10.5t54.5 30t34 46t31.5 74.5z" />
    <glyph glyph-name="thorn" unicode="&#xfe;" horiz-adv-x="630" 
d="M67 -228h150v280h2q24 -33 64 -48.5t90 -15.5t91.5 21t70.5 57.5t44.5 83t15.5 97.5q0 55 -17 101t-48.5 79.5t-76 52t-97.5 18.5q-42 0 -81 -17.5t-56 -46.5h-2v322h-150v-984zM205 243q0 56 32 89.5t88 33.5t88 -33.5t32 -89.5q0 -55 -32 -89t-88 -34t-88 34t-32 89z
" />
    <glyph glyph-name="ydieresis" unicode="&#xff;" horiz-adv-x="556" 
d="M173 558q37 0 61 25t24 61q0 35 -26 58.5t-61 23.5q-33 0 -57 -24.5t-24 -57.5q0 -35 24 -60.5t59 -25.5zM381 558q37 0 61 25t24 61q0 35 -26 58.5t-61 23.5q-33 0 -57 -24.5t-24 -57.5q0 -35 24 -60.5t59 -25.5zM553 486h-154l-107 -321h-2l-125 321h-162l213 -490
l-11 -28v-1q-19 -47 -36.5 -64t-63.5 -17q-35 0 -70 15l-20 -123q54 -18 112 -18q52 0 86 10.5t54.5 30t34 46t31.5 74.5z" />
    </font>
</defs>
</svg>
